ふ・れ・ん・ど・し・た・い
学園生活部
BASIC
Level: 3
BPM: 148
Notes: 160
1
口口口口 |----|
口口口口 |----|
口口口口 |----|
口口口口 |----|
2
口①①口 |①---|
口②②口 |----|
口口口口 |②---|
口口口口 |----|
3
口口口口 |①---|
口口口口 |----|
口①①口 |②---|
口②②口 |----|
4
口口口口 |①---|
口口口口 |----|
①口口② |②---|
口口口口 |----|
5
口口口口 |①---|
①口口② |----|
口口口口 |②---|
口口口口 |----|
6
口①②口 |①---|
口口口口 |----|
口口口口 |②---|
口口口口 |----|
7
口口口口 |①---|
口口②① |----|
口口口口 |②---|
口口口口 |----|
8
口口口口 |①---|
②①口口 |----|
口口口口 |②---|
口口口口 |----|
9
口口口口 |①---|
口口口口 |----|
①②口口 |②---|
口口口口 |----|
10
口口口口 |①---|
口口口口 |----|
口口①② |②---|
口口口口 |----|
11
口口口口 |①---|
口口②① |----|
口口口口 |②---|
口口口口 |----|
12
口口口口 |①---|
②①口口 |----|
口口口口 |②---|
口口口口 |----|
13
口口口口 |①---|
口口口口 |----|
①②口口 |②---|
口口口口 |----|
14
口口口口 |①---|
口口①口 |----|
口②②口 |②---|
口口口口 |----|
15
口口口口 |①---|
②口口① |----|
口口口口 |②---|
口口口口 |----|
16
口①①口 |①---|
口口口口 |----|
口②②口 |②---|
口口口口 |----|
17
口口口口 |①---|
②口口① |----|
口口口口 |②---|
口口口口 |----|
18
口②②口 |①---|
口口口口 |----|
口①①口 |②---|
口口口口 |----|
19
口口口口 |①---|
①口口② |----|
口口口口 |②---|
口口口口 |----|
20
口①①口 |①---|
口口口口 |----|
口②②口 |②---|
口口口口 |----|
21
口口口口 |①---|
②口口① |----|
口口口口 |②---|
口口口口 |----|
22
③口口③ |①---|
口②②口 |②---|
口①①口 |③---|
口口口口 |----|
23
口口口口 |①---|
口①②口 |----|
口口口口 |②---|
口口口口 |----|
24
口口口口 |①---|
口口口口 |----|
口口口① |②---|
口口②口 |----|
25
口口口口 |①---|
口口②口 |----|
口①口口 |②---|
口口口口 |----|
26
口口口① |①---|
②口口口 |②---|
口口口③ |③---|
④口口口 |④---|
27
口口口口 |①---|
口②①口 |----|
口口口口 |②---|
口口口口 |----|
28
口口口口 |①---|
口口口口 |----|
①口口口 |②---|
口②口口 |----|
29
口口口口 |①---|
口②口口 |----|
口口①口 |②---|
口口口口 |----|
30
②口口② |①---|
口口①口 |----|
口口口口 |②---|
口口口口 |----|
31
口口口口 |①---|
口①口口 |----|
口②口口 |②---|
口口口口 |----|
32
口口口口 |①---|
口口口口 |----|
口口口口 |②---|
口口①② |----|
33
口口口口 |①---|
口口①口 |----|
口口②口 |②---|
口口口口 |----|
34
口口口口 |①---|
口口口口 |----|
口口口口 |②---|
②①口口 |----|
35
②②口口 |①---|
口口口口 |----|
口①③口 |②---|
口口口口 |③---|
36
口口①① |----|
口②②口 |①---|
口口口口 |②---|
口口口口 |----|
37
口口口口 |①---|
口口口口 |②---|
②口口④ |③---|
①口口③ |④---|
38
口口口口 |①---|
口②④口 |②---|
口①③口 |③---|
口口口口 |④---|
39
口①①口 |①---|
③口口③ |----|
口②②口 |②---|
口口口口 |③---|
40
口①②口 |①---|
口口口口 |----|
口口口口 |②---|
口口口口 |----|
41
口口口口 |①---|
口①口口 |----|
口口②② |②---|
口口口口 |----|
42
口②①口 |①---|
口口口口 |----|
口口口口 |②---|
口口口口 |----|
43
口口口口 |①---|
口口①口 |----|
②②口口 |②---|
口口口口 |----|
44
口口口口 |①---|
口②①口 |----|
口口口口 |②---|
口口口口 |----|
45
口②②口 |①---|
口口口口 |----|
①口口口 |②---|
口口口口 |----|
46
口口口口 |①---|
口①②口 |----|
口口口口 |②---|
口口口口 |----|
47
口②②口 |①---|
口口口口 |----|
口口口① |②---|
口口口口 |----|
48
口口口口 |①---|
①②口口 |②---|
③④口口 |③---|
口口口口 |④---|
49
口口口口 |①---|
口口口口 |②---|
口口③③ |③---|
口口①② |----|
50
口口口口 |①---|
口口②① |②---|
口口④③ |③---|
口口口口 |④---|
51
口口口口 |①---|
口口口口 |②---|
③③口口 |③---|
②①口口 |----|
52
口口口口 |①---|
①②口口 |②---|
③④口口 |③---|
口口口口 |④---|
53
口口口口 |①---|
口口口口 |②---|
口口③③ |③---|
口口①② |----|
54
口口口口 |①---|
口口②① |②---|
口口④③ |③---|
口口口口 |④---|
55
口③③口 |①---|
口③③口 |②---|
口口口口 |③---|
②①口口 |----|
不確定度: 0