ふ・れ・ん・ど・し・た・い
学園生活部

ADVANCED

Level: 6
BPM: 148
Notes: 374

1
口口口口 |----|
口口口口 |----|
口口口口 |----|
口口口口 |----|
2
口口口口 |①---|
口口口口 |----|
口②②口 |②---|
口①①口 |----|
3
口②②口 |①---|
口①①口 |----|
口口口口 |②---|
口口口口 |----|
4
口口口口 |①-②-|
口⑥③口 |③---|
口口口口 |④-⑤-|
①⑤②④ |⑥---|
5
⑥口口③ |①-②-|
口⑤②口 |③---|
口①④口 |④-⑤-|
口口口口 |⑥---|
6
口①①口 |--①-|
⑤③③⑤ |②-③-|
⑤②②⑤ |④---|
口④④口 |⑤---|
7
口④口① |①-②-|
口口⑤口 |③-④-|
口⑥口⑦ |--⑤-|
②口③口 |⑥-⑦-|
8
口⑤口② |①-②-|
①口口口 |③-④-|
口口⑥口 |⑤---|
③口④口 |--⑥-|
9
口⑤口口 |①-②-|
口①口② |③-④-|
③⑦⑥口 |--⑤-|
口口④口 |⑥-⑦-|
10
口④①口 |①-②-|
②口口口 |③-④-|
口口口③ |----|
口口口口 |----|
11
①口④口 |①-②-|
口⑤口口 |③-④-|
⑦口⑥口 |--⑤-|
口③口② |⑥-⑦-|
12
②⑦⑤⑦ |①-②-|
口口口① |③-④-|
⑥⑧⑥口 |⑤-⑥-|
口④口③ |⑦-⑧-|
13
口口⑤口 |①-②-|
②⑥①口 |③-④-|
口口口③ |--⑤-|
⑦④口口 |⑥-⑦-|
14
口口③口 |--①-|
口④口④ |②-③-|
②口④口 |④---|
口口口① |----|
15
⑥口口⑤ |①-②-|
①口口④ |③-④-|
③口口② |--⑤-|
口⑦⑦口 |⑥-⑦-|
16
口②②口 |①---|
口①①口 |②---|
口③③口 |③---|
口口口口 |----|
17
⑤口口⑥ |①-②-|
③口口① |③-④-|
②口口④ |--⑤-|
口⑦⑦口 |⑥-⑦-|
18
口②②口 |①---|
口口口口 |--②-|
口①①口 |----|
口口口口 |----|
19
⑥口口⑤ |①-②-|
①口口④ |③-④-|
③口口② |--⑤-|
口⑦⑦口 |⑥-⑦-|
20
口②②口 |①---|
口①①口 |②---|
口③③口 |③---|
口口口口 |----|
21
⑤口口⑥ |①-②-|
③口口① |③-④-|
②口口④ |--⑤-|
口⑦⑦口 |⑥-⑦-|
22
③口口③ |①---|
口②②口 |②---|
口①①口 |③---|
口口口口 |----|
23
口⑥⑤口 |--①-|
口①口② |②-③-|
④口③⑦ |④-⑤⑥|
口口口口 |--⑦-|
24
口⑥⑦口 |①-②-|
③口口口 |③-④-|
口④⑤口 |⑤-⑥⑦|
口②①口 |----|
25
口⑤④口 |--①-|
①⑥⑦③ |②-③-|
口②口口 |④-⑤-|
口口口口 |⑥-⑦-|
26
①口口⑧ |①-②-|
⑦口口② |③-④-|
③口口⑥ |⑤-⑥-|
⑤口口④ |⑦-⑧-|
27
②⑤⑥口 |--①-|
口口①口 |②-③-|
⑦③口④ |④-⑤⑥|
口口口口 |--⑦-|
28
口⑦⑥口 |①-②-|
口口口③ |③-④-|
口⑤④口 |⑤-⑥⑦|
口①②口 |----|
29
口口口口 |--①-|
②口口① |②-③-|
口④③口 |④-⑤-|
⑥⑦⑦⑤ |⑥-⑦-|
30
④口口④ |①-②-|
口①①口 |③-④-|
②③③② |--⑤-|
⑥⑦⑦⑤ |⑥-⑦-|
31
口口口口 |①---|
口①①口 |--②-|
②口口②
口口口口

③口口③
口口④口
口口口口 |③---|
口⑤口口 |④-⑤-|
32
口口②口 |①---|
③口口口 |②-③-|
口④④口 |④---|
口口口① |----|
33
口口①口 |①---|
口④口⑤ |--②-|
③口②口 |③-④-|
口口⑥口 |⑤-⑥-|
34
④③④③ |①---|
②口②口 |②---|
口①口① |③---|
口口口口 |④---|
35
口口口口 |①-②-|
①口口⑥ |③-④-|
⑦⑤口② |⑤---|
③口④口 |⑥-⑦-|
36
⑦⑤⑤⑦ |①-②-|
④口口口 |③-④-|
⑥口③⑥ |⑤---|
口②口① |⑥-⑦-|
37
口口口口 |①-②-|
口③⑥口 |③---|
口口口口 |④-⑤-|
④②⑤① |⑥---|
38
③口口⑥ |①-②-|
口②⑤口 |③---|
口④①口 |④-⑤-|
口口口口 |⑥---|
39
口①①口 |--①-|
⑤③③⑤ |②-③-|
⑤②②⑤ |④---|
口④④口 |⑤---|
40
①口④口 |①-②-|
口⑤口口 |③-④-|
⑦口⑥口 |--⑤-|
口③口② |⑥-⑦-|
41
②口⑤口 |①-②-|
口口口① |③-④-|
口⑥口口 |⑤---|
口④口③ |--⑥-|
42
口口⑤口 |①-②-|
②口①口 |③-④-|
口⑥⑦③ |--⑤-|
口④口口 |⑥-⑦-|
43
口①④口 |①-②-|
口口口② |③-④-|
③口口口 |----|
口口口口 |----|
44
口④口① |①-②-|
口口⑤口 |③-④-|
口⑥口⑦ |--⑤-|
②口③口 |⑥-⑦-|
45
口⑤口② |①-②-|
①口口口 |③-④-|
口口⑥口 |⑤---|
③口④口 |--⑥-|
46
口⑤口⑦ |①-②-|
口①⑥② |③-④-|
③口口口 |--⑤-|
口口④口 |⑥-⑦-|
47
口④④口 |--①-|
③口口口 |②-③-|
口①口② |④---|
口口口口 |----|
48
①口④口 |①-②-|
口⑤口口 |③-④-|
⑦口⑥口 |--⑤-|
口③口② |⑥-⑦-|
49
②口⑤口 |①-②-|
口口口① |③-④-|
口⑥口口 |⑤---|
口④口③ |--⑥-|
50
口口⑤口 |①-②-|
②口①口 |③-④-|
口⑥⑦③ |--⑤-|
口④口口 |⑥-⑦-|
51
口①④口 |①-②-|
口口口② |③-④-|
③口口口 |----|
口口口口 |----|
52
口④口① |①-②-|
口口⑤口 |③-④-|
口⑥口⑦ |--⑤-|
②口③口 |⑥-⑦-|
53
⑦⑤⑦② |①-②-|
①口口口 |③-④-|
口⑥⑧⑥ |⑤-⑥-|
③口④口 |⑦-⑧-|
54
口⑤口口 |①-②-|
口①⑥② |③-④-|
③口口口 |--⑤-|
口口④⑦ |⑥-⑦-|
55
口③口口 |--①-|
④口④口 |②-③-|
口④口② |④---|
①口口口 |----|

不確定度: 0

最終更新:2016年07月27日 16:08