ふ・れ・ん・ど・し・た・い
学園生活部

EXTREME

Level: 8
BPM: 148
Notes: 545

1
口口口口 |----|
口口口口 |----|
口口口口 |----|
口口口口 |----|
2
口①②口 |①---|
①口口② |----|
②口口① |②---|
口②①口 |----|
3
口①②口 |①---|
①口口② |----|
②口口① |②---|
口②①口 |----|
4
⑤口口⑩ |①②③④|
④③⑧⑨ |⑤---|
口⑦②口 |⑥⑦⑧⑨|
⑥口口① |⑩---|
5
⑤④⑨⑩ |①②③④|
口③⑧口 |⑤---|
口⑦②口 |⑥⑦⑧⑨|
⑥口口① |⑩---|
6
⑤口口⑤ |--①-|
⑤①③⑤ |②-③-|
②③①④ |④---|
口②④口 |⑤---|
7
口口口口 |①-②-|
口②④口 |③-④-|
②口口④
口①③口

⑥口口⑥
⑤⑦口⑤
口口口口 |--⑤-|
口口口口 |⑥-⑦-|
8
⑤⑤口口 |①-②-|
口⑥④口 |③-④-|
口③①口 |⑤---|
口口②② |--⑥-|
9
口④④口 |①-②-|
口口口口 |③-④-|
③口①③
口②口口

口口口口
⑤口口⑤
口⑥⑥口 |--⑤-|
⑦口口⑦ |⑥-⑦-|
10
③⑤⑤③ |①-②-|
口④④口 |③-④-|
②⑥⑥② |--⑤-|
口①①口 |⑥---|
11
口口口口 |①-②-|
口④②口 |③-④-|
④口口②
口③①口

⑥口口⑥
⑤口⑦⑤
口口口口 |--⑤-|
口口口口 |⑥-⑦-|
12
口口⑤⑤ |①-②-|
⑥④⑧⑦ |③-④-|
口①③口 |⑤-⑥-|
②②口口 |⑦-⑧-|
13
口④④口 |①-②-|
口口口口 |③-④-|
③①口③
口口②口

⑦口口⑦
⑤口口⑤
口⑥⑥口 |--⑤-|
口口口口 |⑥-⑦-|
14
口③口口 |--①-|
④口④口 |②-③-|
④④④② |④---|
①④口口 |----|
15
口口口口 |①-②-|
口②口③ |③-④-|
口口④①
口③口④

口口口口
口⑦⑦口
口口口⑥ |--⑤-|
⑤口口口 |⑥-⑦-|
16
②②②② |①---|
口口口口 |②---|
口③③口 |③---|
③①①③ |----|
17
口口口口 |①-②-|
③口②口 |③-④-|
①④口口
④口③口

口口口口
口⑦⑦口
⑥口口口 |--⑤-|
口口口⑤ |⑥-⑦-|
18
②②②② |①---|
口口口口 |--②-|
口口口口 |----|
口①①口 |----|
19
口口口口 |①-②-|
②口口③ |③-④-|
口口④①
口③口④

口口口口
口⑦⑦口
口口口⑥ |--⑤-|
⑤口口口 |⑥-⑦-|
20
②②②② |①---|
口口口口 |②---|
口③③口 |③---|
③①①③ |----|
21
口口口口 |①-②-|
③口②口 |③-④-|
①④口口
④口③口

口口口口
口⑦⑦口
⑥口口口 |--⑤-|
口口口⑤ |⑥-⑦-|
22
③③③③ |①---|
②口口② |②---|
口口口口 |③---|
口①①口 |----|
23
⑤⑥口口 |--①-|
口口④⑦ |②-③-|
③①口② |④-⑤⑥|
口口口口 |--⑦-|
24
口口口口 |①-②-|
①口③口 |③-④-|
口⑦⑥④ |⑤-⑥⑦|
⑤②口口 |----|
25
①口口口 |--①-|
⑦③②⑥ |②-③-|
口口口口 |④-⑤-|
⑤口口④ |⑥-⑦-|
26
②②①① |①-②-|
口④③口 |③-④-|
③③④④
口①②口

⑧⑧⑦⑦
⑥口口⑤
口口口口 |⑤-⑥-|
⑤⑦⑧⑥ |⑦-⑧-|
27
口口⑥⑤ |--①-|
⑦④口口 |②-③-|
②口①③ |④-⑤⑥|
口口口口 |--⑦-|
28
口口口口 |①-②-|
口③口① |③-④-|
④⑥⑦口 |⑤-⑥⑦|
口口②⑤ |----|
29
口口口① |--①-|
⑥②③⑦ |②-③-|
口口口口 |④-⑤-|
④口口⑤ |⑥-⑦-|
30
④①①④ |①-②-|
口③③口 |③-④-|
④②②④
口口口口

口口口口
口口口口
口⑦口口 |--⑤-|
⑤口⑥口 |⑥-⑦-|
31
口①③口 |①---|
①口口③ |--②-|
⑤口②口 |③---|
口④④口 |④-⑤-|
32
①口②① |①---|
口③口② |②-③-|
口口③口 |④---|
④口口④ |----|
33
①⑦⑦① |①---|
⑤口③⑥ |②-③-|
⑥②口⑤ |④-⑤-|
口④④口 |⑥-⑦-|
34
⑤口口口 |①---|
口②②口 |②-③-|
⑤①①③ |④---|
口④④口 |⑤---|
35
⑥口⑤① |①-②-|
口②⑦⑤ |③-④-|
口⑦②口 |⑤---|
③④口口 |⑥-⑦-|
36
⑦③⑦口 |①-②-|
③⑤口⑤ |③-④-|
⑥口⑥口 |⑤---|
口④②① |⑥-⑦-|
37
⑩口口⑤ |①②③④|
⑨⑧③④ |⑤---|
口②⑦口 |⑥⑦⑧⑨|
①口口⑥ |⑩---|
38
⑩⑨④⑤ |①②③④|
口⑧③口 |⑤---|
口②⑦口 |⑥⑦⑧⑨|
①口口⑥ |⑩---|
39
⑤口口⑤ |--①-|
⑤③①⑤ |②-③-|
④①③② |④---|
口④②口 |⑤---|
40
口口口口 |①-②-|
口④②口 |③-④-|
④口口②
口③①口

⑥口口⑥
⑤口⑦⑤
口口口口 |--⑤-|
口口口口 |⑥-⑦-|
41
口口⑤⑤ |①-②-|
口④⑥口 |③-④-|
口①③口 |⑤---|
②②口口 |--⑥-|
42
口④④口 |①-②-|
口口口口 |③-④-|
③①口③
口口②口

口口口口
⑤口口⑤
口⑥⑥口 |--⑤-|
⑦口口⑦ |⑥-⑦-|
43
③⑤⑤③ |①-②-|
口④④口 |③-④-|
②⑥⑥② |--⑤-|
口①①口 |⑥---|
44
口口口口 |①-②-|
口②④口 |③-④-|
②口口④
口①③口

⑥口口⑥
⑤⑦口⑤
口口口口 |--⑤-|
口口口口 |⑥-⑦-|
45
⑤⑤口口 |①-②-|
口⑥④口 |③-④-|
口③①口 |⑤---|
口口②② |--⑥-|
46
口④④口 |①-②-|
口口口口 |③-④-|
③口①③
口②口口

⑦口口⑦
⑤口口⑤
口⑥⑥口 |--⑤-|
口口口口 |⑥-⑦-|
47
⑥④④⑥ |--①-|
⑤①①⑤ |②-③-|
③口口③ |④-⑤-|
②口口② |⑥---|
48
口口口口 |①-②-|
口④②口 |③-④-|
④口口②
口③①口

⑥口口⑥
⑤口⑦⑤
口口口口 |--⑤-|
口口口口 |⑥-⑦-|
49
口口⑤⑤ |①-②-|
口④⑥口 |③-④-|
口①③口 |⑤---|
②②口口 |--⑥-|
50
口④④口 |①-②-|
口口口口 |③-④-|
③①口③
口口②口

口口口口
⑤口口⑤
口⑥⑥口 |--⑤-|
⑦口口⑦ |⑥-⑦-|
51
③⑤⑤③ |①-②-|
口④④口 |③-④-|
②⑥⑥② |--⑤-|
口①①口 |⑥---|
52
口口口口 |①-②-|
口②④口 |③-④-|
②口口④
口①③口

⑥口口⑥
⑤⑦口⑤
口口口口 |--⑤-|
口口口口 |⑥-⑦-|
53
口口⑤⑤ |①-②-|
⑦⑧④⑥ |③-④-|
口③①口 |⑤-⑥-|
口口②② |⑦-⑧-|
54
口④④口 |①-②-|
口口口口 |③-④-|
③口①③
口②口口

⑦口口⑦
⑤口口⑤
口⑥⑥口 |--⑤-|
口口口口 |⑥-⑦-|
55
口口③口 |--①-|
口④口④ |②-③-|
②④④④ |④---|
口口④① |----|

不確定度: 0

最終更新:2016年07月27日 16:07