ちょちょちょ!ゆるゆり☆かぷりっちょ!!!
七森中☆ごらく部

BASIC

Level: 4
BPM: 190
Notes: 447

1
口口口口 |----|
口口口口 |----|
口口口口 |----|
口口口口 |----|
2
口口口口 |----|
口口口口 |----|
口口口口 |----|
口口口口 |----|
3
口口口口 |①-②-③-|
口口口口 |④---|
⑤⑥⑦⑧ |⑤-⑥-⑦-|
①②③④ |⑧---|
4
⑥口口⑥ |①-②-③-|
①②③④ |④---|
口⑤⑤口 |⑤---|
口口口口 |⑥---|
5
口口口口 |①-②-③-|
口口口口 |④---|
⑧⑦⑥⑤ |⑤-⑥-⑦-|
④③②① |⑧---|
6
口④口口 |①---②-|
口②口③ |--③---|
⑥口⑤口 |④---⑤-|
口口①口 |--⑥---|
7
口口口口 |①-②-③-|
口口口口 |④---|
⑧⑦⑥⑤ |⑤-⑥-⑦-|
④③②① |⑧---|
8
⑥口口⑥ |①-②-③-|
④③②① |④---|
口⑤⑤口 |⑤---|
口口口口 |⑥---|
9
口口口口 |①-②-③-|
口口口口 |④---|
⑤⑥⑦⑧ |⑤-⑥-⑦-|
①②③④ |⑧---|
10
口口口口 |①---②-|
③口②口 |--③---|
口⑤口口 |④---|
口①⑤④ |--⑤-|
11
③口③口 |----|
②口②口 |①---|
①口①口 |②---|
口口口口 |③---|
12
口口口口 |--①-|
⑤口口⑤ |②---|
③④②① |③-④-|
口口口口 |--⑤-|
13
口⑦口口 |--①-|
口①⑥口 |②-③-|
口⑤②口 |④-⑤-|
口③④口 |⑥-⑦-|
14
②口口① |①---|
口③③口 |②---|
口口④口 |--③-|
口④口口 |--④-|
15
口③口③ |----|
口②口② |①---|
口①口① |②---|
口口口口 |③---|
16
口口口口 |--①-|
口口口口 |②---|
①②④③ |③-④-|
口⑤⑤口 |--⑤-|
17
口口口口 |----|
口口口口 |①---|
口口口③ |②---|
②口口① |③---|
18
口口口口 |①---|
①①①① |----|
②口口口 |----|
口口口口 |--②-|
19
口口口口 |①-②-|
口口口口 |③-④-|
⑧⑦③④ |⑤-⑥-|
①②⑥⑤ |⑦-⑧-|
20
口口⑧⑦ |①-②-|
⑤⑥口口 |③-④-|
口口④③ |⑤-⑥-|
①②口口 |⑦-⑧-|
21
口口口口 |①-②-|
口口口口 |③-④-|
口①④口
口③②口

口口口口
⑤口口⑥
口⑦口口 |⑤-⑥-|
口口口口 |--⑦-|
22
口②⑥口 |①-②-|
④口①⑤ |--③-|
口口口口 |④---|
口口③口 |⑤-⑥-|
23
口口口口 |①-②-|
口③①口 |③-④-|
⑦④②⑤ |⑤-⑥-|
⑧口口⑥ |⑦-⑧-|
24
口④⑤口 |①-②-|
⑧③⑥① |③-④-|
口⑦②口 |⑤-⑥-|
口口口口 |⑦-⑧-|
25
①口口② |①---|
口口口口 |②---|
口口口口 |③---|
③口口④ |④---|
26
④⑤口④ |①---|
③口口③ |②---|
②口口② |③---|
口①①口 |④-⑤-|
27
口口①口 |①-②-|
⑥②③⑤ |③-④-|
口④口口 |⑤---|
口口口口 |⑥---|
28
口口口口 |①-②-|
口⑦⑥口 |③-④-|
③口口① |⑤-⑥-|
⑧④②⑤ |⑦-⑧-|
29
口口口口 |①-②-|
口口口口 |③-④-|
口①④口
口③②口

口口口口
⑤口口⑥
口⑦口口 |⑤-⑥-|
口口口口 |--⑦-|
30
口②⑥口 |①-②-|
④口①⑤ |--③-|
口口口口 |④---|
口口③口 |⑤-⑥-|
31
口⑥⑥① |①-②-|
口口②口 |③-④-|
口④口口 |⑤---|
③⑤⑤口 |⑥---|
32
口口口口 |①-②-|
①②③④ |③-④-|
⑧⑦⑥⑤ |⑤-⑥-|
口口口口 |⑦-⑧-|
33
①口口② |①---|
口口口口 |②---|
口口口口 |③---|
③口口④ |④---|
34
口④③口 |①---|
④口口③ |②---|
②口口② |③---|
口①①口 |④---|
35
口口口口 |①---|
口口④口 |②---|
口②①口 |--③-|
②③口① |--④-|
36
③口口口 |--①-|
口②口④ |②-③-|
口口①④ |----|
口口口口 |④---|
37
口口④口 |①---|
①口口口 |②---|
①③口口 |--③-|
口②②口 |--④-|
38
口口口口 |--①-|
口①②口 |②---|
③口④③ |③---|
口口口口 |--④---|
39
口⑤口④ |①---②-|
口口⑥口 |--③---|
口③口口 |④---⑤-|
①口②口 |--⑥---|
40
⑤⑥口⑥ |①---|
①④口口 |②-③-|
口口③口 |④-⑤-|
口口口② |--⑥-|
41
⑦口口⑥ |--①-|
⑤口口④ |②-③-|
③口口② |④-⑤-|
①口口口 |⑥-⑦-|
42
口⑦⑧口 |①-②-|
口⑤⑥口 |③-④-|
口③④口 |⑤-⑥-|
口①②口 |⑦-⑧-|
43
口口口④ |①---|
①③⑤② |②---|
①口口② |③-④-|
口口口口 |--⑤-|
44
①口口口 |①---|
口口口口 |②-③-|
口②③口 |----|
口口口口 |----|
45
口口口④ |①---|
①③⑤② |②---|
①口口② |③-④-|
口口口口 |--⑤-|
46
①口口口 |①---|
口口口② |②---|
③口口口 |③---|
口口口④ |④---|
47
⑥口④口 |①-②-|
⑤③口口 |③-④-|
口口②口 |--⑤-|
口①口⑦ |⑥-⑦-|
48
口④口⑥ |①-②-|
⑦口③⑤ |③-④-|
口②口口 |--⑤-|
口口①口 |⑥-⑦-|
49
口口口口 |①-②-|
口口口口 |③-④-|
③④②① |⑤-⑥-|
⑦⑧⑥⑤ |⑦-⑧-|
50
②③④② |--①-|
口口口口 |--②-|
①口口① |----|
口口口口 |③-④-|
51
口口口④ |①---|
①③⑤② |②---|
①口口② |③-④-|
口口口口 |--⑤-|
52
①口口口 |①---|
口口口口 |②-③-|
口②③口 |----|
口口口口 |----|
53
口口口④ |①---|
①③⑤② |②---|
①口口② |③-④-|
口口口口 |--⑤-|
54
①口口口 |①---|
口口口② |②---|
③口口口 |③---|
口口⑤④ |④-⑤-|
55
口口⑥口 |①-②-|
口口口口 |--③-|
口③④⑤ |④-⑤-|
②①口口 |--⑥-|
56
口①口口 |①-②-|
口③②口 |③-④-|
口⑤④口 |⑤---|
口⑥⑥口 |⑥---|
57
②口口① |①---|
口②①口 |----|
口口口口 |②---|
①口口② |----|
58
口口口口 |①-②-|
②口口① |③-④-|
④⑥口③ |⑤---|
口口⑥⑤ |--⑥-|
59
③口③口 |----|
②口②口 |①---|
①口①口 |②---|
口口口口 |③---|
60
口口口口 |--①-|
⑤口口⑤ |②---|
③④②① |③-④-|
口口口口 |--⑤-|
61
口⑦口口 |--①-|
口①⑥口 |②-③-|
口⑤②口 |④-⑤-|
口③④口 |⑥-⑦-|
62
②口口① |①---|
口③③口 |②---|
口口④口 |--③-|
口④口口 |--④-|
63
口③口③ |----|
口②口② |①---|
口①口① |②---|
口口口口 |③---|
64
口口口口 |--①-|
⑤口口⑤ |②---|
①②④③ |③-④-|
口口口口 |--⑤-|
65
④⑤②① |--①-|
口③⑥口 |②-③-|
口⑦口口 |④-⑤-|
口口口口 |⑥-⑦-|
66
口口口口 |①-②-|
①⑤口② |③-④-|
③口⑤④ |⑤---|
口口口口 |----|
67
口口口口 |①-②-③-|
口口口口 |④---|
⑤⑥⑦⑧ |⑤-⑥-⑦-|
①②③④ |⑧---|
68
⑥口口⑥ |①-②-③-|
①②③④ |④---|
口⑤⑤口 |⑤---|
口口口口 |⑥---|
69
口口口口 |①-②-③-|
口口口口 |④---|
⑧⑦⑥⑤ |⑤-⑥-⑦-|
④③②① |⑧---|
70
口口口口 |①---②-|
⑥②⑤③ |--③---|
口口口口 |④---⑤-|
④④①① |--⑥---|

不確定度: 0

最終更新:2016年07月27日 16:04