ちょちょちょ!ゆるゆり☆かぷりっちょ!!!
七森中☆ごらく部

EXTREME

Level: 9
BPM: 190
Notes: 582

1
口口口口 |----|
口口口口 |----|
口口口口 |----|
口口口口 |----|
2
口口口口 |----|
口口口口 |----|
口口口口 |----|
口口口口 |----|
3
⑤口口① |①-②-③-|
口②⑥口 |④---|
⑦口口③ |⑤-⑥-⑦-|
口④⑧口 |⑧---|
4
口口口① |①-②-③-|
⑥②口⑥ |④---|
口口口③ |⑤---|
⑤④口⑤ |⑥---|
5
①口口⑤ |①-②-③-|
口⑥②口 |④---|
③口口⑦ |⑤-⑥-⑦-|
口⑧④口 |⑧---|
6
口④③③ |①---②-|
④⑤②口 |--③---|
①②⑤⑥ |④---⑤-|
①口口⑥ |--⑥---|
7
①口口⑤ |①-②-③-|
口⑥②口 |④---|
③口口⑦ |⑤-⑥-⑦-|
口⑧④口 |⑧---|
8
①口口口 |①-②-③-|
⑥口②⑥ |④---|
③口口口 |⑤---|
⑤口④⑤ |⑥---|
9
⑤口口① |①-②-③-|
口②⑥口 |④---|
⑦口口③ |⑤-⑥-⑦-|
口④⑧口 |⑧---|
10
口②③口 |①---②-|
②⑤⑤③ |--③---|
④⑤⑤① |④---|
④口口① |--⑤-|
11
①口口口 |----|
②口口③ |①---|
③口口② |②---|
口口口① |③---|
12
③口口① |--①-|
⑤⑤⑤⑤ |②---|
口④②口 |③-④-|
口口口口 |--⑤-|
13
⑤口口④ |--①-|
口口口口 |②-③-|
①口口口 |④-⑤-|
⑦③②⑥ |⑥-⑦-|
14
口口口口 |①---|
口①口口 |②-③-|
口口①口
口③②口

口口口口
④⑤⑤④
④⑤⑤④ |--④-|
口口口口 |--⑤-|
15
口口口① |----|
③口口② |①---|
②口口③ |②---|
①口口口 |③---|
16
①口口③ |--①-|
⑤⑤⑤⑤ |②---|
口②④口 |③-④-|
口口口口 |--⑤-|
17
口口口口 |--①-|
⑦口口⑥ |②-③-|
⑤口口④ |④-⑤-|
③①口② |⑥-⑦-|
18
④②①④ |①-②-|
口②①口 |--③-|
口口⑤口 |--④-|
③口口③ |--⑤-|
19
口口①⑧ |①-②③|
③②④口 |④-⑤⑥|
⑥⑤口口 |⑦---|
口口口⑦ |⑧---|
20
口⑩①⑨ |①-②③|
③②④口 |④-⑤⑥|
⑥⑤⑦⑧ |⑦-⑧-|
口口口口 |⑨-⑩-|
21
①口⑥⑥ |①-②-|
口③口① |③-④-|
口⑦⑤⑤ |⑤--⑥|
口④口② |--⑦-|
22
口口⑤⑤ |①-②-|
口口①② |--③-|
口口口口 |④---|
⑥③④④ |⑤-⑥-|
23
口口口口 |①-②③|
①口口④ |④-⑤⑥|
⑥⑤②③ |⑦---|
⑧口口⑦ |⑧---|
24
口口口口 |①-②③|
①⑩⑧④ |④-⑤⑥|
⑥⑤②③ |⑦-⑧-|
⑨口口⑦ |⑨-⑩-|
25
④④②② |①---|
口口③口 |②---|
口③口口 |③---|
口①①口 |④---|
26
口口④④ |①---|
③③口① |②---|
①口②② |③---|
⑤口口口 |④-⑤-|
27
⑥口口⑦ |①-②③|
口口③② |④-⑤-|
④⑥⑦⑤ |⑥---|
口④⑤① |⑦---|
28
口⑤②口 |①-②③|
④③⑥① |④-⑤⑥|
口⑨口⑦ |⑦-⑧-|
⑩口⑧口 |⑨-⑩-|
29
口口⑥⑥ |①-②-|
口③口① |③-④-|
①⑦⑤⑤ |⑤--⑥|
口④口② |--⑦-|
30
口口⑤⑤ |①-②-|
口口①② |--③-|
口口口口 |④---|
⑥③④④ |⑤-⑥-|
31
口口⑦口 |①-②③|
⑥④⑤⑦ |④-⑤-|
①⑥②③ |⑥---|
口④⑤口 |⑦---|
32
②口口③ |①-②-|
口⑧口⑦ |③-④-|
⑤口⑥口 |⑤-⑥-|
①口口④ |⑦-⑧-|
33
④④②② |①---|
口口③口 |②---|
口③口口 |③---|
口①①口 |④---|
34
口口③口 |①---|
③口口① |②---|
①④②② |③---|
口④口口 |④---|
35
口口口口 |①-②-|
口③②① |③---|
口口口⑤ |--④-|
④口口口 |--⑤-|
36
③④口④ |--①-|
口②口口 |②-③-|
口口①口 |----|
口口口口 |④---|
37
口口口④ |①---|
②口②口 |②---|
③①口① |--③-|
口口口口 |--④-|
38
口②②口 |--①-|
④①①④ |②---|
口③口口 |③---|
口口③口 |--④-|
39
④口口① |①---②-|
口④①口 |--③---|
③③⑥⑤ |④---⑤-|
②②⑥⑤ |--⑥---|
40
口口口口 |①---|
①③①口 |②-③-|
口②口口
口口口口

⑥④⑤⑥
⑥口口⑥
口口口口 |④-⑤-|
口口口口 |--⑥-|
41
口⑦口⑥ |--①-|
口口④口 |②-③-|
⑤③口② |④-⑤-|
口①口口 |⑥-⑦-|
42
⑭⑭⑬⑬ |①②③④|
⑤⑥⑦⑧ |⑤⑥⑦⑧|
⑫⑪⑩⑨ |⑨⑩⑪⑫|
④③②① |⑬-⑭-|
43
口口口口 |①---|
口②②口 |②---|
口口口口
口①①口

口口口口
口口口④
口口口口 |③-④-|
③口⑤口 |--⑤-|
44
口口口口 |①---|
口口②口 |②-③-|
①③口① |----|
④口口④ |④---|
45
口口口口 |①---|
④②②口 |②---|
口⑤口③ |③-④-|
口①①口 |--⑤-|
46
④②①③ |①---|
口口口口 |②---|
口口口口 |③---|
①③④② |④---|
47
口④口⑤ |①-②③|
⑦⑥③口 |④-⑤-|
⑦⑥口② |--⑥-|
①口口⑧ |⑦-⑧-|
48
口④口⑤ |①-②③|
⑦⑥③口 |④-⑤-|
⑦⑥⑧② |--⑥-|
①口口口 |⑦-⑧-|
49
口口口口 |①-②-|
口⑤③① |③-④-|
⑦口⑧口 |⑤-⑥-|
口⑥④② |⑦-⑧-|
50
②口口口 |--①-|
③口②① |--②-|
⑤①口④ |③---|
口口口口 |④-⑤-|
51
口口口口 |①---|
口②②口 |②---|
口口口口
口①①口

口口口口
口口口④
口口口口 |③-④-|
③口⑤口 |--⑤-|
52
口口口口 |①---|
口口②口 |②-③-|
①③口① |----|
④口口④ |④---|
53
口口口口 |①---|
④②②口 |②---|
口⑤口③ |③-④-|
口①①口 |--⑤-|
54
④②①③ |①---|
口⑤口口 |②---|
口口口口 |③---|
①③④② |④-⑤-|
55
口③⑦口 |①-②-|
口⑧①② |③-④-|
⑥⑤④口 |⑤-⑥-|
口口口口 |⑦-⑧-|
56
⑥口口⑥ |①-②-|
口口①② |③-④-|
口⑤⑤③ |⑤---|
口⑤⑤④ |⑥---|
57
口①③口 |①---|
③②②① |②---|
①④④③ |③---|
口口口口 |④---|
58
④口口③ |①-②-|
④⑥⑥③ |③-④-|
⑤⑥⑥⑤ |⑤---|
②②①① |--⑥-|
59
①口口口 |----|
②口口③ |①---|
③口口② |②---|
口口口① |③---|
60
③口口① |--①-|
⑤⑤⑤⑤ |②---|
口④②口 |③-④-|
口口口口 |--⑤-|
61
⑤口口④ |--①-|
口口口口 |②-③-|
①口口口 |④-⑤-|
⑦③②⑥ |⑥-⑦-|
62
口口口口 |①---|
口①口口 |②-③-|
口口①口
口③②口

口口口口
④⑤⑤④
④⑤⑤④ |--④-|
口口口口 |--⑤-|
63
口口口① |----|
③口口② |①---|
②口口③ |②---|
①口口口 |③---|
64
①口口③ |--①-|
⑤⑤⑤⑤ |②---|
口②④口 |③-④-|
口口口口 |--⑤-|
65
口口口口 |--①-|
口口口口 |②-③-|
①⑥⑤口 |④-⑤-|
⑦②③④ |⑥-⑦-|
66
口口口口 |①-②-|
②口⑤① |③-④-|
④口⑤③ |⑤---|
口口⑤口 |----|
67
⑤口口① |①-②-③-|
口②⑥口 |④---|
⑦口口③ |⑤-⑥-⑦-|
口④⑧口 |⑧---|
68
口口口① |①-②-③-|
⑥②口⑥ |④---|
口口口③ |⑤---|
⑤④口⑤ |⑥---|
69
①口口⑤ |①-②-③-|
口⑥②口 |④---|
③口口⑦ |⑤-⑥-⑦-|
口⑧④口 |⑧---|
70
⑥③③⑥ |①---②-|
⑤⑥⑥② |--③---|
②④①⑤ |④---⑤-|
①口口④ |--⑥---|

不確定度: 0

最終更新:2016年07月27日 16:03