きゅん×きゅんばっきゅん☆LOVE
松下feat.Sota & wac

EXTREME

Level: 8
BPM: 165
Notes: 667

1
口口口口 |----|
口口口口 |----|
口口口口 |----|
口口口口 |----|
2
③口口② |①---|
口口口口 |--②③|
口口口口
口①①口

口口口口
口⑦⑥口
⑤口口④ |④⑤⑥⑦|
口口⑧口 |⑧---|
3
口②①口 |①---|
①④③② |②---|
口②①口 |③-④-|
④⑤⑤③ |--⑤-|
4
⑤②①⑤ |--①-|
①④③② |②---|
⑤②①⑤ |③-④-|
④口口③ |--⑤-|
5
口②口口 |①-②-|
口④口口 |③-④-|
口口③口
口口①口

口口⑤口
口口口⑥
⑦口口口 |⑤-⑥-|
口⑧⑧口 |⑦-⑧-|
6
⑦口口⑤ |--①-|
口①②口 |②-③-|
口口口③ |④-⑤-|
⑥口口④ |⑥-⑦-|
7
口②①口 |①---|
①④③② |②---|
口②①口 |③-④-|
⑤③④⑤ |--⑤-|
8
⑥③①⑥ |--①-|
②⑤④③ |②-③-|
⑥③①⑥ |④-⑤-|
口④⑤口 |--⑥-|
9
⑧④①⑧ |①-②-|
口⑧⑧⑤ |③-④-|
口③②口 |⑤-⑥-|
⑥口口⑦ |⑦-⑧-|
10
口①②口 |----|
口口口口 |①---|
②口口① |②-③-|
口④③口 |④---|
11
①②③④ |①-②-|
①②③④ |③-④-|
口口口口
口口口口

口口口口
口⑦口口
口口⑥口 |--⑤-|
口口口⑤ |⑥-⑦-|
12
口口口口 |--①-|
口口口口 |②-③-|
口口口口
①②③口

口⑤④口
⑤口口④
口口口口 |④---|
⑥口口⑥ |⑤-⑥-|
13
⑥⑥口口 |--①-|
口口③③ |②-③-|
口②⑤口 |--④-|
口④①口 |⑤-⑥-|
14
口口口① |--①-|
口口③口 |②---|
口③口口 |③---|
②口口口 |----|
15
口①②④ |①---|
①口④口 |②-③-|
口⑤口① |--④-|
⑤③①口 |--⑤-|
16
②口口口 |--①-|
口③口口 |②---|
口口③口 |③---|
口口口① |----|
17
④⑤⑥口 |--①-|
口口③③ |②-③-|
口②口口 |--④-|
口口①口 |⑤-⑥-|
18
口口口① |①---|
⑤④③② |②-③-|
口口口① |④-⑤-|
⑤口口口 |----|
19
①口口① |①---|
④④口口 |②-③-|
口口③② |--④-|
⑤⑤口口 |--⑤-|
20
④④口口 |①-②-|
口口③口 |③-④-|
口②口口 |----|
⑤⑤①口 |⑤---|
21
②口口① |①---|
口口口口 |----|
②口口① |②---|
④③④③ |③-④-|
22
口④②口 |①-②-|
口口口口 |③-④-|
口③①口 |----|
⑤口口⑤ |⑤---|
23
①口口② |①---|
口①②口 |----|
①口口② |②---|
口③③口 |--③-|
24
③口口③ |①-②-|
口④⑤口 |--③-|
口②①口 |--④-|
口口口口 |⑤---|
25
口②口口 |①---|
口口口口 |----|
口口口口 |----|
①口③① |②-③-|
26
②口口① |①-②-|
口③③口 |--③-|
口③③口 |----|
①口口② |----|
27
②口口口 |①---|
口口口口 |②---|
口口口口
口①①口

口口口口
口口④口
口④口⑤ |③---|
③口⑤口 |④-⑤-|
28
口口①① |--①-|
口②口口 |--②-|
口④③口 |③---|
④口口口 |④---|
29
口口④④ |----|
口口②① |①---|
③③口口 |②---|
口口口口 |③-④-|
30
口口口口 |--①-|
①③口④ |②-③-|
口⑤④口 |④---|
口④⑥② |⑤-⑥-|
31
②口口① |----|
口③③口 |①---|
口④④口 |②---|
口口口口 |③-④-|
32
④口①口 |--①-|
口④口① |--②-|
口口口口 |③---|
口②口③ |④---|
33
口②口② |----|
④口③口 |①---|
口④口③ |②---|
①口①口 |③-④-|
34
⑥④口⑤ |①-②-|
口③口口 |③-④-|
口口②口 |⑤-⑥-|
⑦口①⑦ |⑦---|
35
口②①口 |①---|
①④③② |②---|
口②①口 |③-④-|
④⑤⑤③ |--⑤-|
36
③口口③ |--①-|
②口口② |②-③-|
①口口①
口口口口

口口口口
口口口口
口口口④ |----|
口口④口 |--④-|
37
口口①② |①---|
口①口口 |②---|
口口口口
②口口口

口口口口
口⑤口口
口口③口 |③---|
口④口③ |④-⑤-|
38
①①口口 |--①-|
口口口口 |--②-|
口口②② |----|
③③口口 |③---|
39
①④①④ |①---|
①①①口 |----|
口①口③ |②---|
口口口② |③-④-|
40
口口口口 |--①-|
③口⑤口 |--②-|
②④口口 |--③-|
①口①口 |④-⑤-|
41
④①口② |①---|
口口④口 |----|
口口口① |②---|
口口④③ |③-④-|
42
口口口③ |--①-|
口③口口 |②-③-|
口②①口 |----|
④③口④ |④---|
43
口②①口 |①---|
①④③② |②---|
口②①口 |③-④-|
⑤③④⑤ |--⑤-|
44
口③③口 |--①-|
②口口② |②-③-|
口①①口 |----|
④口口④ |④---|
45
②口口① |①---|
口口口口 |②---|
口口口口
口①②口

口口③⑤
口口⑤③
口⑤口口 |③---|
口口口④ |④-⑤-|
46
口②③口 |--①-|
口①口② |--②-|
口④口② |--③-|
①口①口 |④---|
47
①④②① |①---|
口①①口 |----|
口④③口 |②---|
口口口口 |③-④-|
48
①口口口 |--①-|
口口口口 |--②-|
①④口口 |----|
②口③② |③-④-|
49
②口①① |①---|
口③口① |----|
④口口口 |②-③-|
口⑤口口 |④-⑤-|
50
口②①口 |①-②-|
①③③② |--③-|
口②①口
③口口③

⑥⑥⑥⑥
口口口口
⑤口口⑤ |--④-|
口④④口 |⑤-⑥-|
51
口口③口 |----|
口口口③ |----|
①②口口 |①-②-|
口口口口 |--③-|
52
④口口① |--①-|
口③①口 |--②-|
口口②口 |--③-|
口口口② |④---|
53
⑤口口口 |①---|
口⑤口口 |②---|
①②④③ |③-④-|
②①口口 |--⑤-|
54
口①⑦口 |--①-|
①⑨⑧⑦ |--②-|
②④③口 |③④⑤⑥|
⑥②口⑤ |⑦-⑧⑨|
55
⑤口⑦① |①-②-|
口口口口 |③-④-|
⑥口⑧② |⑤-⑥-|
口④③口 |⑦-⑧-|
56
⑧②口③ |①-②-|
口⑦口口 |③-④-|
⑥①口⑥ |⑤-⑥-|
口⑤口④ |⑦-⑧-|
57
⑥①②⑥ |①-②-|
①口口② |③-④-|
⑦③④⑦ |⑤---|
③⑤⑤④ |⑥-⑦-|
58
⑦①⑥口 |--①-|
口口口⑥ |②-③-|
口②④口 |④-⑤-|
⑤口口③ |⑥-⑦-|
59
口口口③ |--①-|
①②⑤口 |②---|
口口⑤口 |③---|
口口口④ |④-⑤-|
60
⑥口口⑤ |--①-|
口口口口 |②-③-|
①②口口 |④-⑤-|
口④③口 |⑥---|
61
口②①口 |①---|
①④③② |②---|
口②①口 |③-④-|
④⑤⑤③ |--⑤-|
62
③口口③ |--①-|
②口口② |②-③-|
①口口①
口口口口

口口口口
口口口口
口口口④ |----|
口口④口 |--④-|
63
口口①② |①---|
口①口口 |②---|
口口口口
②口口口

口口口口
口⑤口口
口口③口 |③---|
口④口③ |④-⑤-|
64
①①口口 |--①-|
口口口口 |--②-|
口口②② |----|
③③口口 |③---|
65
①④①④ |①---|
①①①口 |----|
口①口③ |②---|
口口口② |③-④-|
66
口口口口 |--①-|
③口⑤口 |--②-|
②④口口 |--③-|
①口①口 |④-⑤-|
67
④①口② |①---|
口口④口 |----|
口口口① |②---|
口口④③ |③-④-|
68
口口口③ |--①-|
口③口口 |②-③-|
口②①口 |----|
④③口④ |④---|
69
口②①口 |①---|
①④③② |②---|
口②①口 |③-④-|
⑤③④⑤ |--⑤-|
70
口③③口 |--①-|
②口口② |②-③-|
口①①口 |----|
④口口④ |④---|
71
②口口① |①---|
口口口口 |②---|
口口口口
口①②口

口口③⑤
口口⑤③
口⑤口口 |③---|
口口口④ |④-⑤-|
72
口②③口 |--①-|
口①口② |--②-|
口④口② |--③-|
①口①口 |④---|
73
①④②① |①---|
口①①口 |----|
口④③口 |②---|
口口口口 |③-④-|
74
①口口口 |--①-|
口口口口 |--②-|
①④口口 |----|
②口③② |③-④-|
75
②口①① |①---|
口③口① |----|
④口口口 |②-③-|
口⑤口口 |④-⑤-|
76
口②①口 |①-②-|
①③③② |--③-|
口②①口
③口口③

⑥⑥⑥⑥
口口口口
⑤口口⑤ |--④-|
口④④口 |⑤-⑥-|
77
⑧口口⑦ |①-②-|
口⑥口③ |③-④-|
口②①口 |⑤-⑥-|
⑤口口④ |⑦-⑧-|
78
⑫口口⑪ |①-②-|
④⑩⑨② |③-④-|
⑧①③⑦ |⑤⑥⑦⑧|
口⑥⑤口 |⑨⑩⑪⑫|
79
⑦口①口 |①-②-|
口口⑥口 |③-④-|
⑧⑤②口 |⑤-⑥-|
③口口④ |⑦-⑧-|
80
口口口② |①-②-|
口⑤④① |③-④⑤|
口口口口
③口口口

口口⑩口
口口口⑩
口⑦⑥口 |⑥⑦⑧⑨|
口⑨⑧口 |⑩---|

不確定度: 0

最終更新:2016年04月15日 18:45