お嫁にしなさいっ!
ARM+夕野ヨシミ (IOSYS)

BASIC

Level: 3
BPM: 180
Notes: 229

1
口口口口 |----|
口口口口 |----|
口口口口 |----|
口口口口 |----|
2
口口口口 |①---|
②口口④ |②---|
口口口口 |③---|
①口口③ |④---|
3
口口口口 |①---|
口③口口 |②---|
口①②口 |③---|
口口口口 |----|
4
口口口口 |①---|
④口口② |②---|
口口口口 |③---|
③口口① |④---|
5
口口口口 |①---|
口口③口 |②---|
口②①口 |③---|
口口口口 |----|
6
口口口口 |①---|
②口口④ |②---|
口口口口 |③---|
①口口③ |④---|
7
口口口口 |①---|
口③口口 |②---|
口①②口 |③---|
口口口口 |----|
8
口口口口 |①---|
④口口② |②---|
口口口口 |③---|
③口口① |④---|
9
口③③口 |①---|
口②②口 |--②-|
口①①口 |----|
口口口口 |③---|
10
①口口① |--①-|
②口口② |----|
口口③口 |②---|
口口口口 |③---|
11
口口口口 |①---|
口口②口 |----|
口①口口 |②---|
口口口口 |----|
12
①口口① |①---|
口口口口 |②---|
口口口口 |----|
口②②口 |----|
13
口口口口 |①---|
口②口口 |----|
口口①口 |②---|
口口口口 |----|
14
①口口① |①---|
口口口口 |②---|
口口口口 |----|
口②②口 |----|
15
口口口口 |①---|
口口②口 |----|
口①口口 |②---|
口口口口 |----|
16
①口口① |①---|
口口口口 |②---|
口口口口 |----|
口②②口 |----|
17
口口口口 |----|
口口口口 |----|
口口口口 |①---|
①口口口 |----|
18
口口口口 |①---|
口口②口 |----|
口①口口 |②---|
口口口口 |----|
19
口口口① |①---|
口②②口 |----|
口口口口 |----|
口口口口 |②---|
20
①②④③ |①---|
口口口口 |②---|
口口口口 |③---|
口口口口 |④---|
21
口口口口 |①---|
①②④③ |②---|
口口口口 |③---|
口口口口 |④---|
22
口口口口 |①---|
口口口口 |②---|
①②④③ |③---|
口口口口 |④---|
23
口口口口 |①---|
口口口口 |②---|
口口口口 |③---|
①②④③ |④---|
24
口口口口 |①---|
口③④口 |②---|
口①②口 |③---|
口口口口 |④---|
25
③①②④ |①---|
口口口口 |②---|
口口口口 |③---|
口口口口 |④---|
26
口口口口 |①---|
①口口② |②---|
③口口④ |③---|
口口口口 |④---|
27
口口口口 |①---|
口③③口 |②---|
口②②口 |③---|
口①①口 |----|
28
①①②② |①---|
口口口口 |----|
口口口口 |②---|
口口口口 |----|
29
口口口口 |①---|
口①①口 |②---|
口②②口 |③---|
口③③口 |----|
30
口口口口 |①---|
①①②② |----|
口口口口 |②---|
口口口口 |----|
31
口口口口 |①---|
口③③口 |②---|
口②②口 |③---|
口①①口 |----|
32
①①②② |①---|
口口口口 |----|
口口口口 |②---|
口口口口 |----|
33
④口口④ |①---|
口①②口 |②---|
口③口口 |③---|
口口口口 |--④-|
34
口口口口 |----|
①口口① |--①-|
②口口② |----|
口口口口 |--②-|
35
口口口口 |----|
口②②口 |--①-|
口②②口 |----|
①口口① |--②-|
36
口口口口 |----|
口口口口 |----|
口口口口 |----|
口口口口 |----|
37
口口口口 |----|
口口口口 |----|
口口口口 |①---|
口①②口 |②---|
38
口口口口 |①---|
②口口④ |②---|
口口口口 |③---|
①口口③ |④---|
39
口口口口 |①---|
口③口口 |②---|
口①②口 |③---|
口口口口 |----|
40
口口口口 |①---|
④口口② |②---|
口口口口 |③---|
③口口① |④---|
41
口口口口 |①---|
口口③口 |②---|
口②①口 |③---|
口口口口 |----|
42
口口口口 |①---|
②口口④ |②---|
口口口口 |③---|
①口口③ |④---|
43
口口口口 |①---|
口③口口 |②---|
口①②口 |③---|
口口口口 |----|
44
口口口口 |①---|
④口口② |②---|
口口口口 |③---|
③口口① |④---|
45
口口口口 |①---|
口口③口 |②---|
口②①口 |③---|
口口口口 |----|
46
口口口口 |①---|
②口口④ |②---|
口口口口 |③---|
①口口③ |④---|
47
口口口口 |①---|
口③口口 |②---|
口①②口 |③---|
口口口口 |----|
48
口口口口 |①---|
④口口② |②---|
口口口口 |③---|
③口口① |④---|
49
口口口口 |①---|
口口③口 |②---|
口②①口 |③---|
口口口口 |----|
50
口口口口 |①---|
②口口④ |②---|
口口口口 |③---|
①口口③ |④---|
51
口口口口 |①---|
口③口口 |②---|
口①②口 |③---|
口口口口 |----|
52
口口口口 |①---|
④口口② |②---|
口口口口 |③---|
③口口① |④---|
53
口③③口 |①---|
口②②口 |--②-|
口①①口 |----|
口口口口 |③---|
54
①口口① |--①-|
②口口② |----|
口口③口 |②---|
口口口口 |③---|
55
口口口口 |①---|
口口②口 |----|
口①口口 |②---|
口口口口 |----|
56
①口口① |①---|
口口口口 |②---|
口口口口 |----|
口②②口 |----|
57
口口口口 |①---|
口②口口 |----|
口口①口 |②---|
口口口口 |----|
58
①口口① |①---|
口口口口 |②---|
口口口口 |----|
口②②口 |----|
59
口口口口 |①---|
口口②口 |----|
口①口口 |②---|
口口口口 |----|
60
①口口① |①---|
口口口口 |②---|
口口口口 |----|
口②②口 |----|
61
口口口口 |----|
口口口口 |----|
口口口口 |①---|
①口口口 |----|
62
口口口口 |①---|
口口②口 |----|
口①口口 |②---|
口口口口 |----|
63
口口口① |①---|
口②口口 |----|
口口口口 |----|
口口口口 |--②-|
64
口口口口 |--①-|
口口①口 |----|
口②②口 |----|
口口口口 |--②-|
65
①①①① |----|
口口口口 |----|
口口口口 |----|
口口口口 |①---|

不確定度: 0

最終更新:2016年07月27日 16:42