お嫁にしなさいっ!
ARM+夕野ヨシミ (IOSYS)

ADVANCED

Level: 7
BPM: 180
Notes: 413

1
口口口口 |----|
口口口口 |----|
口口口口 |----|
口口口口 |----|
2
口口口口 |①-②-|
③口口⑥ |③---|
②口口⑤ |④-⑤-|
①口口④ |⑥---|
3
⑥⑦⑥⑦ |①-②-|
口①②口 |③-④-|
口③④口 |⑤-⑥-|
口⑤口口 |⑦---|
4
口口口口 |①-②-|
⑦⑥⑤④ |③---|
①②③口 |④-⑤-|
口口口口 |⑥-⑦-|
5
⑥⑦⑥⑦ |①-②-|
口口⑤口 |③-④-|
口④③口 |⑤-⑥-|
口②①口 |⑦---|
6
口口口口 |①-②-|
③口口⑥ |③---|
②口口⑤ |④-⑤-|
①口⑦④ |⑥-⑦-|
7
⑥⑦⑥⑦ |①-②-|
口①②口 |③-④-|
口③④口 |⑤-⑥-|
口⑤口口 |⑦---|
8
口口口口 |①-②-|
⑦⑥⑤④ |③---|
①②③口 |④-⑤-|
口口口口 |⑥-⑦-|
9
口口口口 |①---|
③③口③ |--②-|
②口②口 |----|
口口口① |③---|
10
①①①① |--①-|
口③②口 |----|
③口口② |②---|
口口口口 |③---|
11
口口⑤口 |①---|
口口④口 |②-③-|
口③②口 |--④-|
口①①口 |--⑤-|
12
①口口① |--①-|
口口口口 |----|
①口口① |----|
口口口口 |----|
13
②③口口 |①---|
口口口口 |②-③-|
⑤口口④ |--④-|
口①①口 |--⑤-|
14
口口口口 |--①-|
口①①口 |----|
口①①口 |----|
口口口口 |----|
15
口口口口 |①---|
③⑤④口 |②-③-|
②口口口 |--④-|
口①①口 |--⑤-|
16
口①①口 |--①-|
口口口口 |----|
口①①口 |----|
口口口口 |----|
17
口①口口 |----|
口口口口 |----|
口口口口 |①---|
口口口口 |----|
18
口口口口 |①---|
①口①口 |----|
口②②② |②---|
口口口口 |----|
19
②口口② |①---|
口口口口 |----|
口口口口 |----|
①①①① |②---|
20
口口口口 |①-②-|
口⑤⑥④ |③---|
①③②口 |④-⑤-|
口口口口 |⑥---|
21
①②③④ |①-②-|
⑤⑥⑦⑧ |③-④-|
口口口口 |⑤-⑥-|
口口口口 |⑦-⑧-|
22
口口口口 |①-②-|
口口口口 |③---|
口⑤⑥④ |④-⑤-|
①③②口 |⑥---|
23
口①②口 |①-②-|
口③④口 |③-④-|
口⑤⑥口 |⑤-⑥-|
口⑦⑧口 |⑦-⑧-|
24
①③②口 |①-②-|
口⑤⑥④ |③---|
口口口口 |④-⑤-|
口口口口 |⑥---|
25
口口口口 |①-②-|
⑦口口⑧ |③-④-|
①③②⑥ |⑤-⑥-|
口⑤④口 |⑦-⑧-|
26
口①口口 |①-②-|
口口②口 |③---|
⑤③口⑤ |④---|
口④④口 |⑤---|
27
③②①③ |①---|
②口口① |②---|
口口口口 |③---|
④口口口 |--④-|
28
口⑥⑥口 |①-②-|
口②①口 |③-④-|
口④口口 |⑤---|
口口⑤③ |⑥---|
29
③口口口 |①---|
口口②③ |②---|
口②①口 |③---|
④①口口 |--④-|
30
口⑤口⑤ |①-②-|
③⑤⑤⑤ |③-④-|
口口⑤② |⑤---|
口口④① |----|
31
②口②口 |①---|
口口口④ |②---|
口③③口 |③---|
口①口① |--④-|
32
口口口口 |①-②-|
⑥口①⑥ |③-④-|
口⑤⑤口 |⑤---|
②③口④ |⑥---|
33
③④②① |①-②-|
口口口口 |③-④-|
口口口口
口口口口

口口口⑦
口口口口
口⑤⑤口 |⑤-⑥-|
⑦⑥⑥口 |--⑦-|
34
①口口② |----|
口口口口 |--①-|
口口口口 |----|
②口口① |--②-|
35
①口口口 |----|
口②②口 |--①-|
口②②口 |----|
口口口① |--②-|
36
口口口口 |----|
口口口口 |----|
口口口口 |----|
口口口口 |----|
37
口口口口 |----|
口①②口 |----|
口③④口 |①-②-|
口口口口 |③-④-|
38
口③②① |①-②-|
口口口⑦ |③---|
口口口口 |④-⑤-|
④⑤⑥口 |⑥-⑦-|
39
口⑦口口 |①-②-|
⑤②⑥口 |③-④-|
③⑥①④ |⑤-⑥-|
口口⑦口 |⑦---|
40
①口口④ |①-②-|
口②⑤口 |③---|
口⑥③口 |④-⑤-|
口口⑦口 |⑥-⑦-|
41
③⑦④口 |①-②-|
口⑤⑥② |③-④-|
①⑥口口 |⑤-⑥-|
口口⑦口 |⑦---|
42
④口口① |①-②-|
⑤口口② |③---|
⑥口口③ |④-⑤-|
口口口⑦ |⑥-⑦-|
43
⑤⑦④口 |①-②-|
口③⑥口 |③-④-|
口⑥②口 |⑤-⑥-|
口①⑦口 |⑦---|
44
口口口口 |①-②-|
④口口① |③---|
口⑤②口 |④-⑤-|
⑦③⑥口 |⑥-⑦-|
45
口⑦口⑤ |①-②-|
④口⑥③ |③-④-|
②⑥口① |⑤-⑥-|
口口⑦口 |⑦---|
46
口口口口 |①-②-|
③口口⑥ |③---|
②口口⑤ |④-⑤-|
①口口④ |⑥---|
47
⑥⑦⑥⑦ |①-②-|
口①②口 |③-④-|
口③④口 |⑤-⑥-|
口⑤口口 |⑦---|
48
口口口口 |①-②-|
⑦⑥⑤④ |③---|
①②③口 |④-⑤-|
口口口口 |⑥-⑦-|
49
⑥⑦⑥⑦ |①-②-|
口口⑤口 |③-④-|
口④③口 |⑤-⑥-|
口②①口 |⑦---|
50
口口口口 |①-②-|
③口口⑥ |③---|
②口口⑤ |④-⑤-|
①口⑦④ |⑥-⑦-|
51
⑥⑦⑥⑦ |①-②-|
口①②口 |③-④-|
口③④口 |⑤-⑥-|
口⑤口口 |⑦---|
52
口口口口 |①-②-|
⑦⑥⑤④ |③---|
①②③口 |④-⑤-|
口口口口 |⑥-⑦-|
53
口口口口 |①---|
③③口③ |--②-|
②口②口 |----|
口口口① |③---|
54
①①①① |--①-|
口③②口 |----|
③口口② |②---|
口口口口 |③---|
55
口口⑤口 |①---|
口口④口 |②-③-|
口③②口 |--④-|
口①①口 |--⑤-|
56
①口口① |--①-|
口口口口 |----|
①口口① |----|
口口口口 |----|
57
②③口口 |①---|
口口口口 |②-③-|
⑤口口④ |--④-|
口①①口 |--⑤-|
58
口口口口 |--①-|
口①①口 |----|
口①①口 |----|
口口口口 |----|
59
口口口口 |①---|
③⑤④口 |②-③-|
②口口口 |--④-|
口①①口 |--⑤-|
60
口①①口 |--①-|
口口口口 |----|
口①①口 |----|
口口口口 |----|
61
口①口口 |----|
口口口口 |----|
口口口口 |①---|
口口口口 |----|
62
口口口口 |①---|
①口①口 |----|
口②②② |②---|
口口口口 |----|
63
②口口② |①---|
口口口口 |----|
口口口口 |----|
①①①① |--②-|
64
口口口口 |--①-|
口口口口 |----|
口口口口 |----|
①②②① |--②-|
65
口口①口 |----|
口①①① |----|
口口①口 |----|
口口①口 |①---|

不確定度: 0

最終更新:2016年07月27日 16:41