お嫁にしなさいっ!
ARM+夕野ヨシミ (IOSYS)

EXTREME

Level: 9
BPM: 180
Notes: 552

1
口口口口 |----|
口口口口 |----|
口口口口 |----|
口口口口 |----|
2
口口口口 |①-②-|
⑥①④③ |③---|
口⑤②口 |④-⑤-|
①⑥③④ |⑥---|
3
⑥⑦⑥⑦ |①-②-|
口④口口 |③-④-|
②口③① |⑤-⑥-|
口口⑤口 |⑦---|
4
口口口口 |①-②-|
④③⑥① |③---|
⑦⑤②口 |④-⑤-|
④③⑥① |⑥-⑦-|
5
⑧⑨⑧⑨ |①②③④|
口④口① |⑤-⑥-|
口⑦②⑥ |⑦-⑧-|
口③口⑤ |⑨---|
6
口口口⑦ |①-②-|
⑥①④③ |③---|
口⑤②口 |④-⑤-|
①⑥③④ |⑥-⑦-|
7
⑥⑦⑥⑦ |①-②-|
口①口口 |③-④-|
口口②③ |⑤-⑥-|
⑤口④口 |⑦---|
8
口口口⑦ |①-②-|
④③⑥① |③---|
口⑤②口 |④-⑤-|
④③⑥① |⑥-⑦-|
9
口口口口 |①---|
③③口③ |--②-|
②口②口 |----|
口口口① |③---|
10
①①①① |--①-|
口③②口 |----|
③口口② |②---|
③口口② |③---|
11
⑤③口口 |①---|
口⑤口口 |②-③-|
④②口口 |--④-|
口①①口 |--⑤-|
12
口口口① |--①-|
①口①口 |----|
口①口① |----|
①口口口 |----|
13
口口口① |①---|
口口②口 |②-③-|
口口③⑤ |--④-|
口口⑤④ |--⑤-|
14
①①①① |--①-|
①①①① |----|
口口口口 |----|
口口口口 |----|
15
④口口⑤ |①---|
口口口口 |②-③-|
口口③口 |--④-|
口①②口 |--⑤-|
16
⑤①①⑤ |--①-|
口②②口 |②-③-|
③③③③ |④---|
④④④④ |--⑤-|
17
口①口口 |----|
口口口口 |----|
口口口口 |①---|
口口口口 |----|
18
口口口口 |①---|
①口①口 |----|
口②②② |②---|
口口口口 |----|
19
②口口② |①---|
口②②口 |----|
口口口口 |----|
①①①① |②---|
20
口口口口 |①-②-|
口口口口 |③---|
④⑤⑥口 |④-⑤-|
口③②① |⑥---|
21
口③口① |①-②-|
④⑦②⑤ |③-④-|
口口⑧⑧ |⑤-⑥-|
⑦⑥⑥⑤ |⑦-⑧-|
22
⑤⑥②③ |①-②-|
④口①口 |③---|
口口口口 |④-⑤-|
口口口口 |⑥---|
23
口⑦⑤口 |①-②-|
⑦⑥⑧⑤ |③-④-|
⑥口口⑧ |⑤-⑥-|
①③②④ |⑦-⑧-|
24
口口口口 |①-②-|
口口口口 |③---|
口③⑥口 |④-⑤-|
①④②⑤ |⑥---|
25
⑤②④① |①-②-|
口⑥③口 |③-④-|
⑧口口⑦ |⑤-⑥-|
口口口口 |⑦-⑧-|
26
口口口口 |①-②-|
④⑤口② |③---|
口口口口 |④---|
口③口① |⑤---|
27
②③③① |①---|
口口口口 |②---|
④⑤口口 |③---|
①③③② |--④⑤|
28
口口口② |①-②-|
⑥⑤④③ |③④⑤⑥|
口口①⑦ |⑦---|
口⑧⑧口 |⑧---|
29
①①②② |①---|
③③③③ |②---|
口①②口 |③---|
④⑤口口 |--④⑤|
30
④⑦③⑦ |①-②-|
口⑦⑦⑦ |③④⑤⑥|
②⑥⑦⑤ |⑦--⑧|
⑨口①⑧ |⑨---|
31
口口口口 |①---|
口口口口 |②---|
①口口②
口①②口

③口③口
口③口③
④⑤口口 |③---|
口口口口 |--④⑤|
32
口⑧⑧② |①-②-|
口口口口 |③④⑤⑥|
口口①⑦ |⑦---|
⑥⑤④③ |⑧---|
33
口口口口 |①-②-|
④口口① |③-④-|
口②③口
口口口口

口口⑦口
口口口⑦
⑦口口口 |⑤-⑥-|
⑥⑦口⑤ |--⑦-|
34
口①②口 |----|
①口口② |--①-|
②口口① |----|
口②①口 |--②-|
35
口①口口 |----|
①②②口 |--①-|
口②②① |----|
口口①口 |--②-|
36
口口口① |----|
口口口② |①---|
口口口③ |②---|
口口口口 |③---|
37
口口口口 |①-②③|
口口口口 |④---|
口口口口
②③④①

⑥口口⑤
⑧口口⑦
⑩口口⑨ |⑤⑥⑦⑧|
⑫口口⑪ |⑨⑩⑪⑫|
38
口③①口 |①-②-|
口②口口 |③---|
口③①口
口口口口

口口⑦口
⑥口④口
⑤口口口 |④-⑤-|
⑥口④口 |⑥-⑦-|
39
⑦口口⑥ |①-②-|
口①口口 |③-④-|
⑤口②④ |⑤-⑥-|
⑥③口⑦ |⑦---|
40
口口①口 |①-②-|
③⑥②① |③---|
⑥③⑤④ |④-⑤-|
口口④⑦ |⑥-⑦-|
41
⑨口⑤⑧ |①②③④|
⑥口②① |⑤-⑥-|
口③口⑦ |⑦-⑧-|
⑧④口⑨ |⑨---|
42
⑥口④口 |①-②-|
⑤③①⑦ |③---|
⑥②④口 |④-⑤-|
口③①口 |⑥-⑦-|
43
⑦口口⑥ |①-②-|
口③口口 |③-④-|
口②④① |⑤-⑥-|
⑥⑤口⑦ |⑦---|
44
口口①口 |①-②-|
③⑥②① |③---|
⑥③⑤④ |④-⑤-|
口口④⑦ |⑥-⑦-|
45
①⑥③⑦ |①-②-|
⑤口⑤口 |③-④-|
口⑤口⑤ |⑤-⑥-|
②口④口 |⑦---|
46
口口口口 |①-②-|
⑥①④③ |③---|
口⑤②口 |④-⑤-|
①⑥③④ |⑥---|
47
⑥⑦⑥⑦ |①-②-|
口④口口 |③-④-|
②口③① |⑤-⑥-|
口口⑤口 |⑦---|
48
口口口口 |①-②-|
④③⑥① |③---|
⑦⑤②口 |④-⑤-|
④③⑥① |⑥-⑦-|
49
⑧⑨⑧⑨ |①②③④|
口④口① |⑤-⑥-|
口⑦②⑥ |⑦-⑧-|
口③口⑤ |⑨---|
50
口口口⑦ |①-②-|
⑥①④③ |③---|
口⑤②口 |④-⑤-|
①⑥③④ |⑥-⑦-|
51
⑥⑦⑥⑦ |①-②-|
口①口口 |③-④-|
口口②③ |⑤-⑥-|
⑤口④口 |⑦---|
52
口口口⑦ |①-②-|
④③⑥① |③---|
口⑤②口 |④-⑤-|
④③⑥① |⑥-⑦-|
53
口口口口 |①---|
③③口③ |--②-|
②口②口 |----|
口口口① |③---|
54
①①①① |--①-|
口③②口 |----|
③口口② |②---|
③口口② |③---|
55
⑤③口口 |①---|
口⑤口口 |②-③-|
④②口口 |--④-|
口①①口 |--⑤-|
56
口②①口 |--①-|
②口口① |②-③-|
④口口③ |④---|
口④③口 |----|
57
口口口① |①---|
口口②口 |②-③-|
口口③⑤ |--④-|
口口⑤④ |--⑤-|
58
③口口② |--①-|
口③②口 |②-③-|
口①④口 |④---|
①口口④ |----|
59
④口口⑤ |①---|
口口口口 |②-③-|
口口③口 |--④-|
①①②口 |--⑤-|
60
⑤①①⑤ |--①-|
口②②口 |②-③-|
③③③③ |④---|
④④④④ |--⑤-|
61
口①口口 |----|
口口口口 |----|
口口口口 |①---|
口口口口 |----|
62
口口口口 |①---|
①口①口 |----|
口②②② |②---|
口口口口 |----|
63
②口口② |①---|
口②②口 |----|
口口口口 |----|
①①①① |--②-|
64
②口口② |--①-|
口口口口 |----|
口口口口 |----|
①口口① |--②-|
65
口口①口 |----|
口①①① |----|
口口①口 |----|
口口①口 |①---|

不確定度: 0

最終更新:2016年07月27日 16:41