UROBOROS OVERDIVE
L.E.D. feat. YURiCa/花たん

EXTREME

Level: 9
BPM: 160
Notes: 855

1
口口口口 |----|
口口口口 |----|
口口口口 |----|
口口口口 |----|
2
①口⑪⑤ |①②③④|
②⑮⑬⑥ |⑤⑥⑦⑧|
③⑫⑭⑦ |⑨⑩-⑪|
④⑨⑩⑧ |⑫⑬⑭⑮|
3
①口⑤① |①--②|
③⑧口口 |③-④-|
⑤口⑨② |⑤--⑥|
⑦口④⑥ |⑦-⑧⑨|
4
①①口② |①-②-|
③口③② |③---|
④⑤口⑧ |④⑤⑥⑦|
⑧⑨⑥⑦ |⑧-⑨-|
5
①口④① |①--②|
③口口口 |③-④-|
口口②口
口口口口

口口口口
口⑧⑥⑤
⑤口⑨口 |⑤--⑥|
⑦口口口 |⑦-⑧⑨|
6
①①②② |①-②-|
③口④③ |③---|
④口⑨⑩ |④-⑤⑥|
⑦⑧⑥⑤ |⑦⑧⑨⑩|
7
①口口④ |①--②|
③②口① |③-④-|
⑤口⑧口 |⑤--⑥|
⑦口⑥⑤ |⑦-⑧-|
8
①口③口 |①-②③|
④口口⑤ |④⑤-⑥|
口②口口
口口⑥口

口口口口
口⑦⑬口
⑦⑫⑨⑪ |⑦-⑧⑨|
⑩⑧口口 |⑩⑪⑫⑬|
9
①①⑦⑤ |①--②|
④⑥⑥② |--③-|
③⑤口口 |④--⑤|
口③④② |--⑥⑦|
10
①①口口 |①--②|
口口口口 |--③-|
口口口口
②②③③

口⑨⑧口
⑦口口⑥
⑪⑤④⑩ |④⑤⑥⑦|
口口口口 |⑧⑨⑩⑪|
11
②口口① |①---|
口②①口 |②---|
口口口口 |③-④-|
③④⑤⑥ |⑤-⑥-|
12
口口口口 |--①-|
口②①口 |②---|
口①②③ |----|
口口口口 |--③-|
13
⑦口①⑧ |①-②-|
②⑤口口 |③-④-|
口口⑥口 |⑤-⑥-|
口③口④ |⑦-⑧-|
14
口④①口 |--①-|
⑦⑤②⑦ |②-③-|
口⑥③口 |④-⑤-|
口口口口 |⑥-⑦-|
15
①口口① |--①-|
口⑤口口 |②---|
口口④③ |--③-|
②口口② |④-⑤-|
16
口口口② |①-②-|
①口⑥⑦ |③-④-|
④⑤口口 |⑤-⑥-|
⑧口口③ |⑦-⑧-|
17
①②口口 |①--②|
③④口口 |③--④|
⑤⑥口口 |⑤--⑥|
⑦口口⑧ |⑦-⑧-|
18
口⑤②① |①--②|
口口口③ |③-④-|
⑥⑦⑧口 |⑤-⑥-|
口④口口 |⑦-⑧-|
19
①②口① |①---|
口口③口 |②-③-|
口口口口
口口口口

⑥口口口
⑦口口口
口④口口 |④-⑤-|
口口⑤口 |⑥-⑦-|
20
口口口① |--①-|
口口①② |②---|
口口②⑤ |--③-|
④口口③ |④-⑤-|
21
口①③口 |①-②-|
①②④③ |③-④-|
⑤⑥⑧⑦ |⑤-⑥-|
口⑤⑦口 |⑦-⑧-|
22
②口口口 |--①-|
口口口口 |②-③-|
口口口口
①口口③

口口④⑦
口⑤口④
⑥口⑤口 |④-⑤-|
⑦⑥口口 |⑥-⑦-|
23
①②口③ |--①-|
口口②④ |②---|
口②口⑤ |--③-|
口口②① |④-⑤-|
24
⑧①⑤⑦ |①-②-|
口⑥②口 |③-④-|
口③口口 |⑤-⑥-|
口口④口 |⑦-⑧-|
25
口口口口 |--①②|
口口①口 |③---|
口②口口 |----|
口口③口 |----|
26
口口口口 |①-②-|
①口③口 |③-④-|
口②口④
口③口①

口⑦口⑤
口口口口
⑤口口口 |⑤-⑥-|
⑧口⑥⑦ |⑦-⑧-|
27
①口口口 |①--②|
③口②口 |③--④|
⑤口④口 |⑤---|
⑥口口⑦ |⑥-⑦-|
28
①口口口 |①---|
②③口口 |②-③-|
④口口口 |④--⑤|
⑥口⑤⑦ |⑥-⑦-|
29
①口口口 |①--②|
③口②口 |③---|
④口口口 |④---|
⑤⑥口口 |⑤-⑥-|
30
口③①③ |①--②|
口①②① |--③-|
口③①③
口口口口

⑤口⑩口
⑦口口⑧
⑨口口口 |④⑤⑥⑦|
口⑪⑥④ |⑧⑨⑩⑪|
31
口口口口 |①---|
口 |----|
口口口口 |----|
口口口口 |----|
32
口①②口 |----|
口口口 |----|
口口口口 |----|
口口口口 |①-②-|
33
口口口口 |①--②|
口①④口 |--③-|
①③②④ |-④--|
③口口② |----|
34
⑩⑭③⑦ |①②③④|
②⑥⑪⑮ |⑤⑥⑦⑧|
⑧⑯①⑬ |⑨⑩⑪⑫|
⑫④⑨⑤ |⑬⑭⑮⑯|
35
④口①⑤ |①--②|
口②③口 |--③-|
④口①⑤ |-④--|
口②③口 |⑤---|
36
④口口③ |----|
⑥口口⑤ |----|
⑧口口⑦ |①②③④|
口②①口 |⑤⑥⑦⑧|
37
⑥①①⑤ |①--②|
口②②口 |--③-|
口③③口 |-④--|
口④④口 |⑤-⑥-|
38
口口口口 |①②③④----|
①②③④ |----⑤⑥⑦⑧|
⑤⑥⑦⑧ |----⑨⑩⑪⑫|
⑨⑩⑪⑫ |----|
39
①①①① |①-②-|
②口口④ |③-④-|
口③口口
口口口口

口⑧口口
⑧⑥口口
口口⑦口 |⑤-⑥-|
口口⑤口 |⑦-⑧-|
40
口口①① |--①-|
口口口口 |②-③-|
④⑤⑥② |--④-|
③③口② |⑤-⑥-|
41
②①②① |①-②-|
口口口口 |③-④-|
口口口口
④③口③

口口⑧⑦
口⑥口⑧
口口⑧⑤ |⑤-⑥-|
口口口口 |⑦-⑧-|
42
口①口口 |--①-|
①②②口 |--②-|
口①③口 |--③-|
②④⑤② |④-⑤-|
43
①①口口 |①-②-|
②②口口 |③---|
③③口口 |----|
口口口口 |----|
44
③⑦⑤① |①-②-|
④口⑥② |③-④-|
口⑧⑧口 |⑤-⑥-|
①⑤⑦③ |⑦-⑧-|
45
①口口① |--①-|
③③③ |②-③-|
口口口 |----|
②口口② |----|
46
口口口① |①--②|
③口② |--③-|
口口②①
口口③口

口口口口
口口⑥口
⑦④口⑩ |④-⑤⑥|
⑨⑤口⑧ |⑦⑧⑨⑩|
47
①①①① |①-②-|
②口口④ |③-④-|
口③口口
口口口口

口⑧口口
⑧⑥口口
口口⑦口 |⑤-⑥-|
口口⑤口 |⑦-⑧-|
48
口口①① |--①-|
口口口口 |②-③-|
④⑤⑥② |--④-|
③③口② |⑤-⑥-|
49
②①②① |①-②-|
口口口口 |③-④-|
口口口口
④③口③

口口⑧⑦
口⑥口⑧
口口⑧⑤ |⑤-⑥-|
口口口口 |⑦-⑧-|
50
口①口口 |--①-|
①②②口 |--②-|
口①③口 |--③-|
②④⑤② |④-⑤-|
51
①①口口 |①-②-|
②②口口 |③---|
③③口口 |----|
口口口口 |----|
52
口口口口 |--①-|
口口口口 |②-③-|
口③口口
口口②①

④口④口
口⑤口⑤
⑥口⑥口 |④-⑤-|
口⑦口⑦ |⑥-⑦-|
53
⑦③⑤① |①-②-|
③⑦①⑤ |③-④-|
⑥④⑦② |--⑤-|
④⑥②⑦ |⑥-⑦-|
54
口⑧口① |---①|
口口⑦口 |--②-|
口⑥⑤口 |③④⑤⑥|
②④③口 |⑦-⑧-|
55
①口⑤① |①--②|
③⑧口口 |③-④-|
⑤口⑨② |⑤--⑥|
⑦口④⑥ |⑦-⑧⑨|
56
①①口② |①-②-|
③口③② |③---|
④⑤口⑧ |④⑤⑥⑦|
⑧⑨⑥⑦ |⑧-⑨-|
57
②①⑤① |①--②|
⑥②②④ |--③-|
③④①⑥ |④--⑤|
⑤⑤③④ |--⑥-|
58
口③口口 |①--②|
口①②口 |--③-|
口口口口
口口口口

口口口口
⑫⑬⑭口
⑧⑨⑩⑪ |④⑤⑥⑦--⑧⑨|
④⑤⑥⑦ |⑩⑪---⑫⑬⑭|
59
③口口② |①-②-|
口⑥口① |③-④-|
口口⑦口 |⑤---|
⑤口口④ |⑥-⑦-|
60
④口④① |①-②-|
口口口② |③-④-|
口口口③ |--⑤-|
⑤口⑤口 |----|
61
口口口口 |①-②-|
②③④① |③-④-|
②口口① |⑤-⑥-|
⑤⑧⑦⑥ |⑦-⑧-|
62
⑦口③① |①-②-|
⑥⑦口口 |③-④-|
⑤⑥④② |--⑤-|
口⑤口口 |⑥-⑦-|
63
口⑧⑦⑥ |①-②-|
⑤口①① |③-④-|
口口口④ |⑤-⑥-|
③口②② |⑦-⑧-|
64
⑦口口⑦ |①-②-|
⑥②③⑥ |③-④-|
⑤口口⑤ |--⑤-|
①口口④ |⑥-⑦-|
65
⑦①①⑥ |①-②-|
口⑤③口 |--③-|
口③④口 |④-⑤-|
口②②口 |⑥-⑦-|
66
口③口口 |①-②-|
③口口② |③-④-|
①④口②
①口④口

口口口口
口⑧⑤口
⑫口⑨⑪ |⑤⑥⑦⑧|
⑩⑥口⑦ |⑨⑩⑪⑫|
67
①①①① |①-②-|
②口口④ |③-④-|
口③口口
口口口口

口⑧口口
⑧⑥口口
口口⑦口 |⑤-⑥-|
口口⑤口 |⑦-⑧-|
68
①口②② |①-②-|
口⑥⑦⑧ |③-④-|
⑥⑦⑧③ |⑤-⑥-|
④④⑤③ |⑦-⑧-|
69
②①②① |①-②-|
口口口口 |③-④-|
口口口口
④③口③

口口⑧⑦
口⑥口⑧
口口⑧⑤ |⑤-⑥-|
口口口口 |⑦-⑧-|
70
口②口口 |①-②-|
②④④口 |③-④-|
口②口③
④①口④

口口口口
口口口口
⑤口⑥口 |⑤-⑥-|
口⑦⑧口 |⑦-⑧-|
71
①①口口 |①-②-|
②②口口 |③-④-|
③③口口
口口口④

口口口口
口⑧⑦口
口口⑤⑥ |⑤-⑥-|
口口口口 |⑦-⑧-|
72
③⑦⑤① |①-②-|
④口⑥② |③-④-|
口⑧⑧口 |⑤-⑥-|
①⑤⑦③ |⑦-⑧-|
73
②⑥⑤② |①-②-|
④④④ |③-④-|
口口① |⑤---|
③口口③ |⑥---|
74
口口口① |①--②|
③口② |--③-|
口口②①
口口③口

口口口口
口口⑥口
⑦④口⑩ |④-⑤⑥|
⑨⑤口⑧ |⑦⑧⑨⑩|
75
①①①① |①-②-|
②口口④ |③-④-|
口③口口
口口口口

口⑧口口
⑧⑥口口
口口⑦口 |⑤-⑥-|
口口⑤口 |⑦-⑧-|
76
①口②② |①-②-|
口⑥⑦⑧ |③-④-|
⑥⑦⑧③ |⑤-⑥-|
④④⑤③ |⑦-⑧-|
77
②①②① |①-②-|
口口口口 |③-④-|
口口口口
④③口③

口口⑧⑦
口⑥口⑧
口口⑧⑤ |⑤-⑥-|
口口口口 |⑦-⑧-|
78
口②口口 |①-②-|
②④④口 |③-④-|
口②口③
④①口④

口口口口
口口口口
⑤口⑥口 |⑤-⑥-|
口⑦⑧口 |⑦-⑧-|
79
①①口口 |①-②-|
②②口口 |③-④-|
③③口口
口口口④

口口口口
口⑧⑦口
口口⑤⑥ |⑤-⑥-|
口口口口 |⑦-⑧-|
80
口口口口 |①-②-|
口口口口 |③-④-|
口④口口
①口③②

⑤口⑤口
口⑥口⑥
⑦口⑦口 |⑤-⑥-|
口⑧口⑧ |⑦-⑧-|
81
⑦③⑤① |①-②-|
③⑦①⑤ |③-④-|
⑥④⑦② |--⑤-|
④⑥②⑦ |⑥-⑦-|
82
口口⑤① |①--②|
③⑦口④ |--③-|
⑥口⑨口 |④⑤-⑥|
②口口⑧ |⑦-⑧⑨|

不確定度: 0

最終更新:2016年07月27日 16:40