Scream out!
A-One

EXTREME

Level: 9
BPM: 166
Notes: 812

1
口口口口 |----|
口口口口 |----|
口口口口 |----|
口口口口 |----|
2
⑥⑥⑥⑥ |①---|
②③⑩⑨ |②③④⑤|
⑦⑧⑤④ |⑥---|
①①①① |⑦⑧⑨⑩|
3
口口口口 |①---|
②③口口 |②③④⑤|
口口⑤④
①①①①

⑥⑥⑥⑥
口口口口
口口口口 |⑥---|
口⑦口口 |--⑦-|
4
口口口口 |①-②-|
①②③④ |③-④-|
⑤⑥⑦⑧ |⑤-⑥-|
口口口口 |⑦-⑧-|
5
②口口④ |①-②-|
口口口口 |③-④-|
口口口口
①口口③

口口⑨口
口口⑧口
⑦⑤⑤口 |⑤---|
⑥口口口 |⑥⑦⑧⑨|
6
①口口口 |①-②-|
⑤⑦口④ |③-④-|
口③⑧② |⑤-⑥-|
口口⑥口 |⑦-⑧-|
7
口口口⑥ |①-②-|
⑤⑦②口 |③-④-|
口③口口 |⑤-⑥-|
①口⑧④ |⑦-⑧-|
8
口口口口 |①---|
口口口③ |②-③-|
口①①口
口②口口

④口口口
口⑥口口
⑦⑦⑦⑦ |④-⑤-|
口口⑤口 |⑥-⑦-|
9
口①①⑤ |----|
①④④① |①---|
口口口③ |②-③-|
口②②口 |④-⑤-|
10
口④⑧口 |①-②-|
②口口⑥ |③-④-|
口③⑦口 |⑤-⑥-|
①口口⑤ |⑦-⑧-|
11
④⑤⑤④ |①--②|
口②②口 |--③-|
⑥⑦⑧⑨ |④-⑤-|
③①①③ |⑥⑦⑧⑨|
12
②口口② |①---|
⑤③③⑦ |②-③-|
口口口口 |④-⑤-|
④①①⑥ |⑥-⑦-|
13
②④⑥⑧ |①-②-|
口口口口 |③-④-|
①③⑤⑦ |⑤-⑥-|
口口口口 |⑦-⑧-|
14
口口口口 |①---|
③口口③ |--②-|
口口②口 |③---|
①④口① |--④-|
15
⑤口④⑥ |①-②-|
⑦口③口 |③-④-|
⑤①②⑥ |--⑤-|
⑦口口口 |⑥-⑦-|
16
口口口口 |①-②-|
口④④① |③-④-|
口②②口
口③③①

⑤口口⑥
⑦口口⑧
⑤口口⑥ |⑤-⑥-|
⑦口口⑧ |⑦-⑧-|
17
口①⑤口 |----|
口②⑥口 |----|
口③⑦口 |①②③④|
口④⑧口 |⑤⑥⑦⑧|
18
口口口口 |①---|


口口口口

口口口口
口口口 |②---|
口口口
口口口口

口口口口

|③---|
口口口口

口口口口
口口口
口口口
口口口口 |④---|
19
①口口① |①--②|
口③③口 |--③-|
口④④口 |④---|
②口口②

口口口口
口口口口

口口口口 |⑤---|
20
①口口① |①---|
③④⑤⑥ |②---|
口②② |③-④-|
口口口口 |⑤-⑥-|
21
①口②③ |①-②③|
口口口口 |④-⑤⑥|
|⑦-|
④口⑤⑥

口口口口

⑧口口 |⑧-|
口口口口 |⑨-|

口口口口
⑩口口
口口口口
口口口口 |⑩-|
22
①②②① |①---|
口口口口 |--②-|
口口口口
口口口口

④口口口
口口口口
口口口口 |③---|
口③③口 |--④-|
23
口⑤口② |①-②-|
口⑥口③ |③-④-|
①⑦口④ |--⑤-|
口口口口 |⑥-⑦-|
24
⑤⑦⑧⑥ |①-②-|
②口口④ |③-④-|
⑤⑦⑧⑥ |⑤-⑥-|
①口口③ |⑦-⑧-|
25
|----|
口①①口 |①---|
口口口口 |②---|
①口口①

口口口
口口口口

口口口口 |③---|
26
口口④口 |①-②-|
①口口② |-③-④|
口口③
口口口口

⑦⑥口口
⑧口口口
⑨⑤口口 |-⑤-⑥|
口口口口 |-⑦⑧⑨|
27
口口口⑦ |①-②-|
⑧④⑥⑨ |-③-④|
口口口口 |-⑤-⑥|
①③⑤② |-⑦⑧⑨|
28
口⑥④口 |①-②-|
口口⑨口 |-③-④|
①⑤③口 |-⑤-⑥|
⑧口⑦② |-⑦⑧⑨|
29
③⑪口③ |①-②-|
①⑩口② |-③-④|
口④④⑤ |-⑤⑥⑦|
⑥⑦⑨⑧ |⑧⑨⑩⑪|
30
口口④口 |①-②-|
①口口② |-③-④|
口口③口
口口口口

⑦⑥口口
⑧口口口
⑨⑤口口 |-⑤-⑥|
口口口口 |-⑦⑧⑨|
31
口口口⑦ |①-②-|
⑧④⑥⑨ |-③-④|
口口口口 |-⑤-⑥|
①③⑤② |-⑦⑧⑨|
32
口⑥④口 |①-②-|
口口⑨口 |-③-④|
①⑤③② |-⑤-⑥|
⑧口⑦口 |-⑦⑧⑨|
33
③④④③ |①-②-|
①口口② |-③--|
口⑤⑤口 |④--⑤|
⑥口口⑥ |--⑥-|
34
口口口④ |①-②-|
①①①① |③-④-|
⑤⑥⑦⑧ |⑤-⑥-|
口②③口 |⑦-⑧-|
35
口③③口 |--①-|
口②②口 |②-③-|
④⑤口⑥ |--④-|
①口口① |⑤-⑥-|
36
口⑥⑥口 |①---|
②③④⑤ |②-③-|
口口①口 |④-⑤-|
⑦⑦⑦⑦ |⑥-⑦-|
37
⑥⑦⑧⑨ |----|
②③④⑤ |①---|
口①①口 |②③④⑤|
口口口口 |⑥⑦⑧⑨|
38
口口⑦⑧ |①-②-|
④⑥口⑤ |③-④-|
①②③① |⑤-⑥-|
口①①口 |⑦-⑧-|
39
口④④口 |--①-|
③⑤⑤③ |②-③-|
口②②口 |--④-|
⑥①①⑥ |⑤-⑥-|
40
①口口① |①---|
口口口口 |②-③-|
②③口口
口口口口

⑦⑦⑦⑦
口口⑥口
口口⑤口 |④-⑤-|
口口④口 |⑥-⑦-|
41
③口口③ |--①-|
②③③② |--②-|
①②②① |--③-|
①口口① |----|
42
口口口口 |①-②-|
口口口口 |③-④-|
⑦⑥⑤口 |--⑤-|
①②③④ |⑥-⑦-|
43
口口口口 |①--②|
①口②③ |--③-|
口⑥⑤④ |--④-|
口口口口 |⑤-⑥-|
44
口口口④ |①---|
②⑤⑤③ |②---|
①口④口 |③-④-|
⑤②③⑤ |--⑤-|
45
①②①② |--①-|
④③④③ |--②-|
②①②① |--③-|
③④③④ |④---|
46
②③⑥口 |①--②|
口口⑤口 |--③-|
口①④① |--④-|
口口口口 |⑤-⑥-|
47
②③⑤口 |①--②|
口口口口 |--③-|
口①④① |--④-|
⑥口口⑥ |⑤-⑥-|
48
口口口口 |①---|

口口口口
口口口口

口口口口
口口 |②-③-|

口口口口


口口口口
口口 |④-|
口口口口



口 |⑤-|
口 |--⑥-|
49
③④④③ |--①-|
①口口① |②-③-|
④口口④ |--④-|
② |----|
50
口④⑧口 |①-②-|
②口口⑥ |③-④-|
口③⑦口 |⑤-⑥-|
①口口⑤ |⑦-⑧-|
51
③⑤⑤③ |①--②|
口②②口 |--③-|
⑥⑦⑧⑨ |④-⑤-|
④①①④ |⑥⑦⑧⑨|
52
②口口② |①---|
⑤③③⑦ |②-③-|
口口口口 |④-⑤-|
④①①⑥ |⑥-⑦-|
53
①③⑤⑦ |①-②-|
口口口口 |③-④-|
②④⑥⑧ |⑤-⑥-|
口口口口 |⑦-⑧-|
54
口口口口 |①---|
口口口口 |--②-|
口口②口
①口口①

口口口口
③口口③
口口口口 |③---|
口口口④ |--④-|
55
⑤口④⑥ |①-②-|
⑦③口口 |③-④-|
⑤①②⑥ |--⑤-|
⑦口口口 |⑥-⑦-|
56
口口口口 |①-②-|
口④④① |③-④-|
口②②口
口③③①

⑤口口⑥
⑦口口⑧
⑤口口⑥ |⑤-⑥-|
⑦口口⑧ |⑦-⑧-|
57
口①⑤口 |----|
口②⑥口 |----|
口③⑦口 |①②③④|
口④⑧口 |⑤⑥⑦⑧|
58
口口口口 |①---|
口口口口
口口口口


口口口口
口③口③ |②-③-|
|④---|
口口口

口口口口
口口口口
口口口
口⑥⑥口 |⑤-⑥-|
59
①④④① |①--②|
口③③口 |--③-|
|④---|
②口口② |⑤---|
60
①口口① |①---|
③④⑤⑥ |②---|
口②② |③-④-|
口口口口 |⑤-⑥-|
61
口②③口 |①-②③|
口口口口 |④-⑤⑥|
口⑤⑥口
①口口④

口口口口
口口口口
|⑦-|
口口口口

口口口口

⑧口口 |⑧-|
口口口口 |⑨-|

口口口口
⑩口口
口口口口
口口口口 |⑩-|
62
口口口口 |①---|





口 |②-③-|
口口口口 |④---|



口口口口
⑥口口口
口口口口 |⑤-⑥-|
63
①⑦口④ |①-②-|
口⑥口③ |③-④-|
口⑤口② |--⑤-|
口口口口 |⑥-⑦-|
64
⑤⑦⑧⑥ |①-②-|
②口口④ |③-④-|
⑤⑦⑧⑥ |⑤-⑥-|
①口口③ |⑦-⑧-|
65
①①口② |----|
①①口② |----|
口①口② |①---|
①①②② |②---|
66
③口②口 |①--②|
口口口口 |--③-|
①③①口
口口口口

口口口④
口口④⑤
口口⑤⑥ |--④-|
口口⑥口 |⑤-⑥-|
67
③口②④ |①--②|
口口④⑤ |--③-|
口③⑤⑥ |--④-|
口①⑥① |⑤-⑥-|
68
③口②④ |①--②|
口口④⑤ |--③-|
口③⑤⑥ |--④-|
口①⑥① |⑤-⑥-|
69
口②口② |①---|
②③②③ |----|
③口③口 |②---|
口①口① |③---|
70
③口②④ |①--②|
口口④⑤ |--③-|
口③⑤⑥ |--④-|
口①⑥① |⑤-⑥-|
71
③口②④ |①--②|
口口④⑤ |--③-|
口③⑤⑥ |--④-|
口①⑥① |⑤-⑥-|
72
③口②⑥ |①--②|
口口⑥⑤ |--③-|
口③⑤④ |--④-|
口①④① |⑤-⑥-|
73
口③口③ |①---|
③口③口 |----|
口②口② |②---|
②①②① |③---|
74
⑦⑥④口 |①-②-|
⑧①口② |-③-④|
⑨⑤③口 |-⑤-⑥|
口口口口 |-⑦⑧⑨|
75
口口口⑦ |①-②-|
⑧④⑥⑨ |-③-④|
口口口口 |-⑤-⑥|
①③⑤② |-⑦⑧⑨|
76
口⑥④口 |①-②-|
口口⑨口 |-③-④|
①⑤③口 |-⑤-⑥|
⑧口⑦② |-⑦⑧⑨|
77
③⑪口③ |①-②-|
①⑩口② |-③-④|
口④④⑤ |-⑤⑥⑦|
⑥⑦⑨⑧ |⑧⑨⑩⑪|
78
口口④口 |①-②-|
①口口② |-③-④|
口口③口
口口口口

⑦⑥口口
⑧口口口
⑨⑤口口 |-⑤-⑥|
口口口口 |-⑦⑧⑨|
79
口口口⑦ |①-②-|
⑧④⑥⑨ |-③-④|
口口口口 |-⑤-⑥|
①③⑤② |-⑦⑧⑨|
80
口⑥④口 |①-②-|
口口⑨口 |-③-④|
①⑤③② |-⑤-⑥|
⑧口⑦口 |-⑦⑧⑨|
81
③⑤⑤③ |①-②-|
①口口② |-③--|
口④④口 |④--⑤|
⑥口口⑥ |--⑥-|
82
口口口口 |①---|
|----|



口口口口

口口口口 |----|
口口口口 |②---|

不確定度: 0

最終更新:2016年07月27日 16:37