Runway Drive
舞花

EXTREME

Level: 8
BPM: 160
Notes: 495

1
口口口口 |----|
口口口口 |----|
口口口口 |----|
口口口口 |----|
2
①口口口 |①---|
口口口口 |--②③|
⑤④③② |④⑤--|
口口口口 |----|
3
口口口口 |----|
口口口口 |----|
口口口口 |----|
口口口口 |----|
4
口口口口 |①---|
②③④⑤ |--②③|
口口口口 |④⑤--|
口口口① |----|
5
口口口① |----|
口口口口 |----|
口口口口 |①---|
口口口口 |----|
6
①口口口 |①---|
②口口口 |②-③④|
⑥⑤④③ |⑤⑥--|
口口口⑦ |⑦---|
7
口口口口 |①---|
口口口口 |②---|
口口口口 |③---|
③①②④ |④---|
8
口⑧⑧② |①---|
③④⑤⑥ |②-③④|
⑦口口口 |⑤⑥--|
口①口口 |⑦-⑧-|
9
④口口口 |--①-|
口⑦⑥⑤ |②-③-|
口口①口 |④-⑤-|
口②③口 |⑥-⑦-|
10
口①口口 |①---|
①口口④ |②---|
口②口口 |③---|
口口③口 |--④-|
11
口口口口 |----|
口口口口 |①---|
口①口口 |----|
口口口口 |----|
12
口①①口 |①---|
④口②口 |②---|
口口③口 |③---|
口口口口 |--④-|
13
口口口① |----|
口口口口 |①---|
口口口口 |----|
口口口口 |----|
14
口口口口 |①---|
口口③口 |②---|
④口口② |③---|
口①①口 |--④-|
15
口口口口 |----|
口口口口 |①---|
口口口口 |----|
口口①口 |----|
16
口①①④ |①---|
口③口口 |②---|
口口②口 |③---|
口口口口 |--④-|
17
口口口口 |----|
口口口口 |①---|
口③②口 |----|
①口口口 |②-③-|
18
口口①口 |①---|
②③口① |②-③-|
口⑥⑤口 |--④-|
口口口④ |⑤-⑥-|
19
口②③② |--①-|
口④口口 |--②-|
⑤口口口 |--③-|
口口①口 |④-⑤-|
20
口口口口 |①---|
口口③口 |②-③-|
口口②口
口①口①

④口④口
口口口口
口口口口 |--④-|
口⑤口⑤ |--⑤-|
21
口口口口 |----|
②①①② |----|
④③③④ |①-②-|
口口口口 |③-④-|
22
口口②③ |①---|
口口⑤口 |②-③-|
口⑤口口 |--④-|
口①①④ |--⑤-|
23
④口⑤③ |--①-|
口②口口 |--②-|
口口①口 |--③-|
口①②口 |④-⑤-|
24
口口⑤口 |①---|
①口④口 |②-③-|
口①口③ |--④-|
口口口② |--⑤-|
25
口口口口 |----|
口口口口 |----|
口口口口 |----|
口①①口 |①---|
26
①⑥②① |①---|
口⑥口口 |②-③-|
口⑤③口 |--④-|
口④口口 |⑤-⑥-|
27
③口②口 |--①-|
口口②④ |--②-|
⑤口口口 |--③-|
口口①口 |④-⑤-|
28
口③口口 |①---|
口口口口 |②-③-|
口口②口
口①①口

⑥口口⑥
口口口口
口④口口 |--④-|
口口⑤口 |⑤-⑥-|
29
口口口口 |----|
②①②① |----|
④③④③ |①-②-|
口口口口 |③-④-|
30
口口口② |①---|
口口口口 |②-③-|
口口⑤⑤ |--④-|
④①①③ |--⑤-|
31
口口③④ |--①-|
①①①③ |--②-|
口口口口 |--③-|
口②②口 |--④-|
32
口②口口 |①---|
⑤口④口 |②-③-|
③口①口 |--④-|
口⑤口④ |--⑤-|
33
口口口口 |----|
②口口口 |----|
口口口① |----|
口口口口 |①-②-|
34
④②口① |①-②-|
口④①口 |③-④-|
口①④口
①口③④

口口口⑥
⑤口⑥口
口⑥口⑤ |--⑤-|
⑥口口口 |--⑥-|
35
④口口口 |--①-|
口口口口 |②-③-|
口⑥⑤口 |--④-|
口③②① |⑤-⑥-|
36
口②①① |①---|
②口③口 |②-③-|
口④口③ |--④-|
④口⑤⑤ |--⑤-|
37
口②②② |--①-|
①①④口 |②---|
口③口口 |----|
口口口口 |③-④-|
38
③③③③ |①---|
口④口口 |②---|
口口口② |③---|
①①①① |④---|
39
③③③③ |①---|
④口口口 |②---|
口口②口 |③---|
①①①① |④---|
40
④④口口 |①---|
⑤⑤③口 |②-③-|
⑥⑥②口 |--④-|
口①口① |⑤-⑥-|
41
口口④口 |----|
口口口③ |----|
口口口② |①-②-|
口口①口 |③-④-|
42
口口口口 |①---|
②②口口 |②-③-|
⑤④④⑤ |--④-|
①①③③ |--⑤-|
43
口口②口 |--①-|
口③①口 |②-③-|
口口口口 |--④-|
④④④④ |----|
44
口口口③ |----|
口①口口 |----|
口口④② |①-②-|
口口口口 |③-④-|
45
①①①口 |①---|
口口口② |②---|
①口口口
口②②②

口口口口
③③③口
④口口口 |③---|
③口口口 |--④-|
46
口③③④ |①-②-|
③口口③ |--③-|
口①②⑤ |--④-|
口⑥口口 |⑤-⑥-|
47
口③口④ |①---|
③口④② |②-③-|
⑤①②口 |--④-|
①⑤口口 |--⑤-|
48
口口口口 |----|
口口③① |----|
口口口口 |①-②-|
口口④② |③-④-|
49
①①②口 |①---|
口口口口 |②-③-|
口③口口
口口口口

口⑥口⑥
口⑤口口
口口④⑥ |--④-|
口口口口 |⑤-⑥-|
50
口口口口 |①---|
①口口② |--②-|
口口口口
①口①口

③口口④
口③④口
口口口口 |③---|
④口口③ |④---|
51
口②口口 |①---|
②口③口 |--②-|
口④口③ |--③-|
④①①口 |--④-|
52
④口口口 |----|
①口②① |①---|
③⑤口口 |②-③-|
口口口口 |④-⑤-|
53
口①①① |①---|
②口口口 |②---|
口口口①
②②②口

口口口口
口③③③
口口口④ |③---|
口口口③ |--④-|
54
④③③口 |①-②-|
③口口③ |--③-|
⑤②①口 |--④-|
口口⑥口 |⑤-⑥-|
55
④口③口 |①---|
②④口③ |②-③-|
口②①⑤ |--④-|
口口⑤① |--⑤-|
56
口口口口 |----|
②④口口 |----|
口口口口 |①-②-|
①③口口 |③-④-|
57
口②①① |①---|
⑤口③⑤ |②-③-|
②口口口 |--④-|
口④④③ |--⑤-|
58
口②②口 |--①-|
口口口⑤ |②---|
④①①口 |--③-|
口口口③ |④-⑤-|
59
①①①口 |①---|
⑥④②口 |②-③-|
⑥口⑤口 |--④-|
⑥③③③ |⑤-⑥-|
60
口口口③ |--①-|
口口①③ |②-③-|
口②口③ |----|
④口口口 |--④-|
61
口⑤口⑥ |--①-|
口口④口 |--②-|
①③口口 |③-④-|
⑥口②口 |⑤-⑥-|
62
口口②口 |①---|
口①口口 |②---|
口口①口
口②口口

口口口口
③⑤④口
口④⑤③ |③---|
口口口口 |④-⑤-|
63
①口口① |①---|
⑥口口③ |②-③-|
⑥口口③ |④---|
口②④⑤ |⑤-⑥-|
64
⑤③②① |①---|
口口口口 |②---|
⑥④口口 |③-④-|
口口口口 |⑤-⑥-|
65
口口口口 |①-②③|
②③④① |④-⑤-|
口口口①
口口⑤口

⑨⑦⑨⑥
口口口口
口口口⑧ |⑥-⑦-|
口口口口 |⑧-⑨-|
66
口口口口 |①---|
口口口口 |②-③④|
口①②口
③④口口

口口⑧口
口口口口
⑦⑨口口 |⑤⑥⑦-|
口口⑤⑥ |⑧-⑨-|
67
①⑦⑥⑤ |①---|
①⑦②口 |②-③-|
④口口口 |④---|
口③③口 |⑤⑥⑦-|
68
口口口口 |①---|
口口口口 |②---|
口口②①
口口口口

口口口口
口口口⑤
⑥③口⑨ |③④-⑤|
⑧口④⑦ |⑥⑦⑧⑨|
69
⑥口②⑥ |①②③④|
①③口口 |⑤-⑥-|
口⑤④口
口口口口

口口口口
口⑨⑨口
口口口口 |--⑦-|
⑦口口⑧ |⑧-⑨-|
70
口③口口 |--①-|
口口口⑧ |②---|
⑦⑥⑤④ |③-④⑤|
口①②口 |⑥⑦⑧-|
71
①口口口 |①---|
口①口口 |----|
口口口口 |----|
口口口口 |----|

不確定度: 0

最終更新:2016年07月27日 16:36