RHYZING BEAT
PHQUASE

EXTREME

Level: 10
BPM: 187
Notes: 890

1
口口口口 |----|
口口口口 |----|
口口口口 |----|
口口口口 |----|
2
口口口② |①---|
口口口口 |----|
口口口口 |②---|
①口口口 |----|
3
口口②口 |①--②|
②④⑤① |----|
①口③② |--③④|
口②口口 |⑤---|
4
④口①③ |①---|
口口口口 |②--③|
口①口口 |--④-|
⑤⑥⑦② |⑤⑥⑦-|
5
口①口③ |①---|
口④④口 |②--③|
口口①口 |--④-|
口口口② |----|
6
④口①③ |①---|
口口口口 |②--③|
口①口口 |--④-|
⑤⑥⑦② |⑤⑥⑦-|
7
③①口⑦ |①---|
口④口⑤ |②---|
口口①口 |③-④⑤|
口口⑥② |-⑥⑦-|
8
口③①口 |①---|
③口口口 |②--③|
②①④② |--④-|
⑤⑥⑦④ |⑤⑥⑦-|
9
②口①② |①---|
口口口口 |②--③|
口①③口
口口口③

口④口口
口④口⑦
口⑥口⑤ |--④-|
口口口口 |⑤⑥⑦-|
10
②⑭⑦⑪ |①---②③④⑤|
③⑬⑧口 |⑥---⑦⑧⑨⑩|
④⑫⑨口 |⑪-⑫-|
⑤①⑩⑥ |⑬-⑭-|
11
口口②口 |①--②|
②④⑤① |----|
①口③② |--③④|
口②口口 |⑤---|
12
⑤④口⑤ |①-②③|
口⑧口口 |④-⑤-|
①⑦⑦⑥ |⑥-⑦-|
⑨③②⑨ |⑧-⑨-|
13
④口①④ |①-②-|
②口⑤② |③-④-|
口⑥⑥口 |⑤-⑥-|
⑦③口口 |⑦---|
14
⑨④口⑨ |①-②③|
⑤⑦⑦⑤ |④-⑤-|
①⑥口口 |⑥-⑦-|
⑧③②口 |⑧-⑨-|
15
口③口口 |①-②-|
③⑤⑤口 |③---|
口口①口 |④-⑤-|
⑥②②④ |⑥---|
16
口④口口 |①-②③|
⑤⑨⑨⑤ |④-⑤-|
①口⑥⑧ |⑥-⑦-|
⑦③②⑦ |⑧-⑨-|
17
⑥⑤③④ |①②-③|
口口口口 |④-⑤⑥|
②①⑦⑧ |-⑦⑧-|
口口口口 |----|
18
口④口口 |①-②③|
①口口① |④-⑤-|
口⑤⑤口
口③②口

⑥口口⑥
口口口⑨
⑧口口口 |⑥-⑦-|
口口口⑦ |⑧-⑨-|
19
口口口口 |①-②-|
③①②口 |--③-|
口口口口
口②③口

⑤⑨口④
口口口⑩
口口⑧⑥ |④⑤⑥⑦|
⑦⑪口口 |⑧⑨⑩⑪|
20
⑤口①③ |①---|
②④口口 |②--③|
口①口⑤ |④-⑤-|
⑥⑦⑧② |⑥⑦⑧-|
21
⑤①口③ |①---|
②④口口 |②--③|
⑦口①⑤ |④-⑤-|
⑥口⑧② |⑥⑦-⑧|
22
⑤口①③ |①---|
②④口口 |②--③|
口①口⑤ |④-⑤-|
⑥⑦⑧② |⑥⑦⑧-|
23
口①口③ |①---|
②口口④ |②-----③④|
口口①口
口口口②

口⑦口口
口口口口
⑦口口⑤ |⑤-⑥-|
⑥⑥口口 |--⑦-|
24
⑤口①③ |①---|
②④口口 |②--③|
口①口⑤ |④-⑤-|
⑥⑦⑧② |⑥⑦⑧-|
25
⑤①口③ |①---|
②④口口 |②--③|
⑦口①⑤ |④-⑤-|
⑥口⑧② |⑥⑦-⑧|
26
⑤口①③ |①---|
②④口口 |②--③|
口①口⑤ |④-⑤-|
⑥⑦⑧② |⑥⑦⑧-|
27
口①口③ |①---|
②口口口 |②--③|
口口①口
口口口②

口⑩口口
口④⑦口
⑥口口⑤ |④-⑤⑥|
口⑧⑨口 |⑦⑧⑨⑩|
28
⑤口①③ |①---|
②④口口 |②--③|
口①口⑤ |④-⑤-|
⑥⑦⑧② |⑥⑦⑧-|
29
⑤口①③ |①---|
②④口口 |②--③|
口①口⑤ |④-⑤-|
⑥⑦⑧② |⑥⑦⑧-|
30
⑤口①③ |①---|
②④口口 |②--③|
口①口⑤ |④-⑤-|
⑥⑦⑧② |⑥⑦⑧-|
31
⑤口①③ |①---|
②④口口 |②--③|
口①口⑤ |④-⑤-|
⑥⑦⑧② |⑥⑦⑧-|
32
⑤口①③ |①---|
②④⑥⑥ |②--③|
口①口⑤ |④-⑤-|
⑥⑥口② |⑥---|
33
⑤⑥①③ |①---|
②④口⑥ |②--③|
⑥①口⑤ |④-⑤-|
口口⑥② |⑥---|
34
⑧口口④ |①-②-|
口⑦③口 |③-④-|
口②⑥口 |⑤-⑥-|
①口口⑤ |⑦-⑧-|
35
口口②③ |①--②|
②口口① |----|
①口口② |--③-|
口②口口 |----|
36
口⑤口⑨ |①--②|
口口④③ |--③④|
口口⑧② |⑤-⑥⑦|
口⑦⑥① |⑧-⑨-|
37
①口口口 |①--②|
②⑤⑥④ |--③-|
③⑦口口 |④-⑤-|
口⑤口④ |--⑥⑦|
38
口口⑤口 |①--②|
③④口口 |--③④|
②口口⑨ |⑤-⑥⑦|
①⑧⑦⑥ |⑧-⑨-|
39
③⑦⑤① |①②-③|
④⑧⑥② |④-⑤⑥|
口口口口 |-⑦⑧-|
口⑩⑨口 |⑨⑩--|
40
口⑤口⑨ |①--②|
口口④③ |--③④|
口口⑧② |⑤-⑥⑦|
口⑦⑥① |⑧-⑨-|
41
①口口口 |①--②|
②⑤⑥④ |--③-|
③⑦口口 |④-⑤-|
口⑤口④ |--⑥⑦|
42
口口⑤口 |①--②|
③④口口 |--③④|
②口口⑨ |⑤-⑥⑦|
①⑧⑦⑥ |⑧-⑨-|
43
④①口④ |①---|
口口①口 |----|
口③②口 |--②③|
口口口口 |④---|
44
口①②口 |①--②|
①口口口 |③-④-|
口口口④
口口③①

口口口口
⑨⑤⑥口
口⑦口口 |⑤-⑥⑦|
⑧⑤口口 |⑧-⑨-|
45
①③⑤⑦ |①--②|
口⑥⑦口 |③-④-|
②⑦口④ |⑤-⑥-|
⑦⑤口口 |⑦---|
46
①口口口 |①--②|
口口口④ |③-④-|
②口口口
口口③①

口口口口
口⑤⑥口
口⑦口口 |⑤-⑥⑦|
⑧⑤口⑨ |⑧-⑨-|
47
口②④口 |①②-③|
①⑥⑧③ |④-⑤⑥|
⑤口口⑦ |-⑦⑧-|
口⑨⑩口 |⑨⑩--|
48
口口口口 |①---|
口 |----|
口 |----|
口口口口 |----|
49
口口口口 |----|
口口口口 |----|
口 |----|
口口口口 |--①-|
50
⑦⑧⑨⑩ |①②③④|
⑥⑮⑯⑪ |⑤⑥⑦⑧|
⑤⑭⑬⑫ |⑨⑩⑪⑫|
④③②① |⑬⑭⑮⑯|
51
⑤⑥口口 |①②--|
口⑦⑦口 |③④--|
口口口口 |⑤⑥--|
①②④③ |⑦---|
52
④口①③ |①---|
口口口口 |②--③|
口①口口 |--④-|
⑤⑥⑦② |⑤⑥⑦-|
53
口②①⑩ |①②③④|
⑨④③⑧ |⑤-⑥⑦|
⑦口⑤⑥ |⑧⑨⑩-|
⑪⑫口口 |⑪-⑫-|
54
④口①③ |①---|
口口口口 |②--③|
口①口口 |--④-|
⑤⑥⑦② |⑤⑥⑦-|
55
④口①⑤ |①---|
口②②① |----|
口口口口 |②-③④|
⑥口口③ |-⑤⑥-|
56
口②①口 |①---|
⑤⑥⑦③ |②--③|
④①③口 |--④-|
口④②口 |⑤⑥⑦-|
57
口口①③ |①---|
口口口口 |②--③|
口①③口
口口②②

口④口口
口④口⑦
口⑥口⑤ |--④-|
口口口口 |⑤⑥⑦-|
58
②⑭⑦⑪ |①---②③④⑤|
③⑬⑧口 |⑥---⑦⑧⑨⑩|
④⑫⑨口 |⑪-⑫-|
⑤①⑩⑥ |⑬-⑭-|
59
口口②口 |①--②|
②口口① |----|
①③③② |----|
口②口口 |③---|
60
②⑦⑨③ |①-②-|
口⑥⑤口 |③-④-|
口⑧口口 |⑤⑥⑦-|
口④①① |⑧-⑨-|
61
③口口⑤ |①②③-|
②口⑨① |④-⑤-|
④⑦⑧口 |⑥-⑦⑧|
⑥口⑩口 |⑨-⑩-|
62
口②口口 |①-②-|
②①口② |----|
口口口口 |----|
口口口② |----|
63
⑤⑧口① |--①-|
口口口口 |②③④-|
⑦口口⑥ |⑤-⑥-|
②③④口 |⑦-⑧-|
64
口⑨②⑨ |①-②-|
⑥④⑥② |③④-⑤|
口⑦⑤⑦ |⑥-⑦-|
⑧③⑧① |⑧-⑨-|
65
口⑨②⑨ |①-②-|
⑥④⑥② |③④-⑤|
口⑧⑤⑧ |⑥-⑦-|
⑦③⑦① |⑧-⑨-|
66
①口②口 |①-②③|
④口⑤③ |--④-|
口口口⑥ |⑤⑥--|
口⑦⑧口 |⑦-⑧-|
67
⑤口④⑨ |①-②③|
⑥③口口 |④-⑤⑥|
⑦口②口 |⑦-⑧-|
①⑩口⑧ |⑨-⑩-|
68
口①⑥口 |-①--|
②口口① |②③④-|
口①⑥⑤ |⑤-⑥-|
④口③口 |----|
69
口①⑥口 |-①--|
②口口① |②③④-|
口①⑥⑤ |⑤-⑥-|
④口③口 |----|
70
⑧①口⑥ |-①--|
②口口① |②③④-|
口①口⑤ |⑤-⑥-|
④⑦③口 |⑦-⑧-|
71
⑥口③⑤ |①--②|
③①④② |--③-|
⑥②口⑤ |-④--|
口④口① |⑤-⑥-|
72
口①④口 |①-②③|
④口口④ |----|
④③②④ |----|
口④口口 |--④-|
73
口口口口 |----|
口口口口 |----|
口口口口 |----|
口口口口 |----|
74
口口口② |①---|
口口口口 |----|
口口口口 |②---|
①口口口 |----|
75
口口口口 |①--②|
口②口口 |----|
口口①口
口口口口

口⑧口⑤
④口口口
口口⑨⑦ |③④⑤⑥|
⑩⑥口③ |⑦⑧⑨⑩|
76
⑥口①⑧ |①-②③|
口④③② |④-⑤⑥|
⑤①口⑦ |-⑦⑧-|
口⑨⑨口 |⑨---|
77
口②①⑤ |①-②-|
③⑥④⑪ |③-④⑤|
⑩①口⑨ |⑥-⑦⑧|
口⑧⑦③ |⑨⑩⑪-|
78
⑦①②⑤ |①-②-|
③⑥④口 |③-④⑤|
口口①⑦ |⑥-⑦-|
⑧⑨⑩③ |⑧⑨⑩-|
79
口⑨①⑤ |①-②-|
③口④⑥ |③---④-⑤⑥|
⑨①②⑦ |⑦-⑧-|
⑧⑧口③ |--⑨-|
80
⑦口①⑤ |①-②-|
③⑥④口 |③-④⑤|
口①②⑦ |⑥-⑦-|
⑧⑨⑩③ |⑧⑨⑩-|
81
口①②⑤ |①-②-|
③口④口 |③-④⑤|
口口①口
口口口③

口⑪口口
口⑥口口
口口⑩⑨ |⑥-⑦⑧|
⑦⑧口口 |⑨⑩⑪-|
82
④口①口 |①-②-|
⑤口③② |③-----④⑤|
⑥①口口 |⑥⑦------|
⑦⑩⑨⑧ |⑧⑨⑩-|
83
⑥⑤②① |①②③④|
⑧⑦④③ |⑤⑥⑦⑧|
⑬口⑩⑨ |⑨⑩⑪⑫|
⑬⑬⑫⑪ |⑬---|
84
⑤口①③ |①---|
②④口口 |②--③|
口①口口 |④-⑤-|
⑥⑦⑧口 |⑥⑦⑧-|
85
口①口③ |①---|
②④口⑨ |②--③|
⑧口①⑦ |④-⑤⑥|
⑥口口⑤ |⑦⑧⑨-|
86
⑤口①③ |①---|
②④口口 |②--③|
口①口口 |④-⑤-|
⑥⑦⑧口 |⑥⑦⑧-|
87
口①口口 |①---|
②口口③ |②-----③④|
口口①④
口口口口

口⑦口⑥
口口口口
口口口口 |⑤-⑥-|
⑥口⑦⑤ |--⑦-|
88
⑤口①③ |①---|
②④口口 |②--③|
口①口口 |④-⑤-|
⑥口口⑥ |⑥---|
89
⑤口①③ |①---|
②④口口 |②--③|
口①口口 |④-⑤-|
⑥口口⑥ |⑥---|
90
口口⑤口 |①②③④|
⑥⑧口③ |⑤⑥⑦⑧|
②口①口
口④⑦口

⑫⑯口⑨
口口⑬口
口⑭⑮口 |⑨⑩⑪⑫|
⑩口口⑪ |⑬⑭⑮⑯|
91
口口口口 |①-|
口口口①
①口口口
口口口口

|-②|
口口 |----|
口口 |----|
|----|
92
口口口 |①---|
口口口 |----|
口口口 |----|
口口 |----|

不確定度: 0

最終更新:2016年07月27日 16:34