Hunny Bunny
U1 overground

ADVANCED

Level: 8
BPM: 160
Notes: 576

1
口口口口 |----|
口口口口 |----|
口口口口 |----|
口口口口 |----|
2
口口口口 |①---|
|----|
|----|
口口口口 |----|
3
口口口口 |----|
口口口口 |----|
口口口口 |----|
口口口口 |----|
4
口口口口 |----|
口口口口 |----|
口口口口 |----|
口口口口 |----|
5
口口口口 |----|
口口口口 |----|
口口口口 |----|
口口口口 |----|
6
口口口口 |①---|
①口口 |②---|
口②口 |③---|
口④③口 |④---|
7
口③④口 |①---|
口③④② |②---|
口口①口 |③---|
口口口口 |④---|
8
口⑧口⑦ |①-②-|
口⑥口⑤ |③-④-|
口④口③ |⑤-⑥-|
口②口① |⑦-⑧-|
9
⑧口⑦口 |①-②-|
⑥口⑤口 |③-④-|
④口③口 |⑤-⑥-|
②口①口 |⑦-⑧-|
10
口②口① |①---|
口口④口 |②---|
口口口④ |③---|
③①③② |④---|
11
③②口② |①---|
①④口⑤ |②---|
口①⑥口 |③-④-|
口口口口 |⑤-⑥-|
12
②口①口 |①---|
口④口口 |②---|
④口口口 |③---|
①③②③ |④---|
13
②口②口 |①---|
③口⑤① |②---|
口口①口 |③-④-|
口④口⑥ |⑤-⑥-|
14
口①口② |①---|
口③④口 |②---|
口口③④ |③---|
②口①口 |④---|
15
③②口② |①---|
①④口⑤ |②---|
口①⑥口 |③-④-|
口口口口 |⑤-⑥-|
16
口⑧口⑦ |①-②-|
口⑥口⑤ |③-④-|
口④口③ |⑤-⑥-|
口②口① |⑦-⑧-|
17
口口口口 |----|
口口口口 |----|
口口口口 |----|
口口口口 |----|
18
①①⑤④ |①-②-|
口③口口 |③---|
③口⑤④ |④---|
口口②② |⑤---|
19
口①口口 |①---|
②④③② |--②-|
口①口口 |--③-|
口③④口 |④---|
20
⑤②②④ |①-②-|
③口口③ |③---|
口①①口 |④---|
④口口⑤ |⑤---|
21
口②①口 |①---|
⑤④③口 |②---|
口口口口 |③-④-|
口①②口 |⑤---|
22
口③口① |①-②-|
口口口口 |③-④-|
④口②口
口口口口

口口口⑧
口口⑦口
口口口⑥ |⑤-⑥-|
口口⑤口 |⑦-⑧-|
23
口①②口 |----|
①③④口 |①---|
口口②口 |②-③-|
口③④口 |④---|
24
口①②① |①---|
口③口口 |--②-|
②①②口 |----|
口③口③ |③---|
25
①③①② |--①-|
口口口口 |----|
口口①口 |②---|
②口③口 |③---|
26
⑤口口口 |①-②-|
①⑥④口 |③-④-|
口③口口 |⑤-⑥-|
口⑧⑦② |⑦-⑧-|
27
口口口口 |①-②-|
口④口① |③-④-|
②口口口
口口口③

⑦口口⑤
口口口口
⑧口口⑥ |⑤-⑥-|
口口口口 |⑦-⑧-|
28
口④口口 |①-②-|
口口⑥③ |③-④-|
⑦⑤②口 |⑤-⑥-|
口①口⑧ |⑦-⑧-|
29
口口⑥⑤ |①-②-|
⑦②口口 |③-④-|
口口③① |⑤-⑥-|
口④⑧口 |⑦-⑧-|
30
口口⑤口 |①-②-|
⑥①⑧口 |③-④-|
口⑦④② |⑤-⑥-|
③口口口 |⑦-⑧-|
31
⑦口口⑤ |①-②-|
口③口口 |③-④-|
⑧口②⑥ |⑤-⑥-|
④①口口 |⑦-⑧-|
32
口⑧⑦口 |①-②-|
口⑥⑤口 |③-④-|
口④③口 |⑤-⑥-|
口②①口 |⑦-⑧-|
33
②口口① |①-②-|
⑥口口⑤ |③-④-|
④⑦⑦③ |⑤-⑥-|
口口口口 |⑦---|
34
①①⑤④ |①-②-|
口③口口 |③---|
③口⑤④ |④---|
口口②② |⑤---|
35
口①口口 |①---|
②④③② |--②-|
口①口口 |--③-|
口③④口 |④---|
36
⑤②②④ |①-②-|
③口口③ |③---|
口①①口 |④---|
④口口⑤ |⑤---|
37
口②①口 |①---|
⑤④③口 |②---|
口口口口 |③-④-|
口①②口 |⑤---|
38
口③口① |①-②-|
口⑥⑥口 |③-④-|
④口②口 |⑤---|
口⑤⑤口 |⑥---|
39
①③②① |①---|
③⑥⑤② |②-③-|
⑥口口⑤ |④-⑤-|
口④④口 |⑥---|
40
①③①口 |①---|
口口②口 |--②-|
③①③口 |----|
口②口② |③---|
41
③口②口 |--①-|
口①口① |----|
口口口口 |②---|
口②①③ |③---|
42
④④口口 |①-②-|
口口③② |--③-|
①口口口 |--④-|
⑤⑤口口 |--⑤-|
43
⑥口口⑥ |①-②-|
口③④② |-③--|
口④③① |④---|
⑤口口⑤ |⑤-⑥-|
44
口口④④ |①-②-|
②③口口 |--③-|
口口口① |--④-|
口口⑤⑤ |--⑤-|
45
口口口口 |①-②-|
②口③口 |-③--|
①③口口
口口口口

口⑥⑤口
⑥④口⑤
口口④口 |④---|
口口口口 |⑤-⑥-|
46
④⑧⑥② |①-②-|
口口口口 |③-④-|
口口口口 |⑤-⑥-|
③⑦⑤① |⑦-⑧-|
47
口口口口 |①-②-|
⑦③①⑤ |③-④-|
⑧④②⑥ |⑤-⑥-|
口口口口 |⑦-⑧-|
48
④⑧⑥② |①-②-|
口口口口 |③-④-|
口口口口 |⑤-⑥-|
③⑦⑤① |⑦-⑧-|
49
口口口口 |----|
口口口口 |----|
口口口口 |----|
口口口口 |----|
50
口②口① |①---|
口口③口 |②---|
口口口③ |----|
口①口② |③---|
51
②口口口 |①---|
①③口④ |----|
口①⑤口 |②-③-|
口口口口 |④-⑤-|
52
②口①口 |①---|
口③口口 |②---|
③口口口 |----|
①口②口 |③---|
53
口口口口 |①---|
②口④① |----|
口口①口 |②-③-|
口③口⑤ |④-⑤-|
54
口①口② |①---|
口③④口 |②---|
口口③④ |③---|
②口①口 |④---|
55
②口口口 |①---|
①③口④ |----|
口①⑤口 |②-③-|
口口口口 |④-⑤-|
56
口⑧口⑦ |①-②-|
口⑥口⑤ |③-④-|
口④口③ |⑤-⑥-|
口②口① |⑦-⑧-|
57
⑧口⑦口 |①-②-|
⑥口⑤口 |③-④-|
④口③口 |⑤-⑥-|
②口①口 |⑦-⑧-|
58
⑨⑦⑧⑩ |①-②-|
口①口① |③④⑤⑥|
③④⑤⑥ |⑦-⑧-|
口②口② |⑨-⑩-|
59
⑩⑧⑦⑨ |①-②-|
①口①口 |③④⑤⑥|
⑥⑤④③ |⑦-⑧-|
②口②口 |⑨-⑩-|
60
⑨⑦⑧⑩ |①-②-|
口①口① |③④⑤⑥|
③④⑤⑥ |⑦-⑧-|
口②口② |⑨-⑩-|
61
⑩⑧⑦⑨ |①-②-|
口①②口 |③④⑤⑥|
⑥⑤④③ |⑦-⑧-|
口口口口 |⑨-⑩-|
62
⑨⑦⑧⑩ |①-②-|
口①口① |③④⑤⑥|
③④⑤⑥ |⑦-⑧-|
口②口② |⑨-⑩-|
63
⑩⑧⑦⑨ |①-②-|
口①②口 |③④⑤⑥|
⑥⑤④③ |⑦-⑧-|
口口口口 |⑨-⑩-|
64
口⑧口⑦ |①-②-|
口⑥口⑤ |③-④-|
口④口③ |⑤-⑥-|
口②口① |⑦-⑧-|
65
⑧口⑦口 |①-②-|
⑥口⑤口 |③-④-|
④口③口 |⑤-⑥-|
②口①口 |⑦-⑧-|
66
口口口① |①---|
⑥②④口 |②---|
口口口② |③-④-|
⑤①③口 |⑤-⑥-|
67
口②口① |①-②-|
⑫⑪⑩⑨ |③-④-|
⑧⑦⑥⑤ |⑤⑥⑦⑧|
口④口③ |⑨⑩⑪⑫|
68
①口②口 |①---|
口④口⑥ |②---|
口口口口 |③-④-|
②③①⑤ |⑤-⑥-|
69
①口②口 |①-②-|
⑨⑩⑪⑫ |③-④-|
⑤⑥⑦⑧ |⑤⑥⑦⑧|
③口④口 |⑨⑩⑪⑫|
70
①口⑧④ |①-②-|
口⑦口口 |③-④-|
③⑤口口 |⑤-⑥-|
口口②⑥ |⑦-⑧-|
71
③口口口 |①-②-|
口口口④ |③-④-|
口口②口
①口口口

口口口⑧
口⑤口口
口口口⑥ |⑤-⑥-|
⑦口口口 |⑦-⑧-|
72
③③⑧⑧ |①-②-|
⑦⑦②② |③-④-|
①①⑥⑥ |⑤-⑥-|
⑤⑤④④ |⑦-⑧-|
73
③③⑥⑥ |①-②-|
⑦⑦②② |③-④-|
①①⑧⑧ |⑤-⑥-|
⑤⑤④④ |⑦-⑧-|
74
口口口口 |①---|
口口①① |----|
①①口口 |----|
口口口口 |----|

不確定度: 0

最終更新:2016年07月27日 16:33