GO! GO! MANIAC
放課後ティータイム

BASIC

Level: 4
BPM: 250
Notes: 278

1
口口口口 |----|
口口口口 |----|
口口口口 |----|
口口口口 |----|
2
口口口口 |----|
口口口口 |----|
口口口口 |----|
口口口口 |----|
3
口口口口 |①---|
口口口口 |----|
口①①口 |----|
口口口口 |----|
4
口口口口 |①---|
口①①口 |----|
口口口口 |----|
口口口口 |----|
5
口口口① |①---|
口口口② |----|
口口口口 |②---|
口口口口 |----|
6
口口口口 |①---|
口口口口 |----|
口口口① |②---|
口口口② |----|
7
口口口口 |①---|
口口口口 |----|
口①①口 |----|
口口口口 |----|
8
口口口口 |①---|
口①①口 |----|
口口口口 |----|
口口口口 |----|
9
口口口口 |①---|
口口口口 |②---|
口④③口 |③---|
口②①口 |④---|
10
口口口口 |①---|
口口①口 |----|
口口口口 |②---|
②口口② |----|
11
口口口口 |①---|
口口口④ |②---|
①②③口 |③---|
口口口口 |④---|
12
口口口口 |①---|
口②①口 |②---|
口口口口 |----|
口口口口 |----|
13
②口口① |①---|
④口口③ |②---|
口口口口 |③---|
口口口口 |④---|
14
口口口口 |①---|
口口口口 |②---|
②口口① |③---|
口口口③ |----|
15
口口②② |①---|
口口口口 |----|
口口口口 |②---|
①①口口 |----|
16
口口口口 |①---|
①①口口 |----|
口口②② |②---|
口口口口 |----|
17
口②口① |①---|
口②口① |②---|
口口口口 |③---|
口③③口 |----|
18
①口②口 |①---|
①口②口 |②---|
口口口口 |③---|
③口口③ |----|
19
口②口① |①---|
口②口① |②---|
口口口口 |③---|
口③③口 |----|
20
①口②口 |①---|
①口②口 |②---|
口口口口 |③---|
③口口③ |----|
21
口口口口 |①---|
口口口口 |----|
口①①口 |②---|
口②②口 |----|
22
①口口① |①---|
②口口② |--②-|
③口口③ |----|
口口口口 |③---|
23
口口口口 |①---|
口口口口 |----|
口口口口 |----|
②①①② |----②-|
24
口口口口 |----①-|
口②②口 |----②-|
口①①口 |----|
口口口口 |----|
25
口口口口 |----|
①①①① |----|
口口口口 |----①-|
口口口口 |----|
26
①②口口 |①---|
口口口口 |----|
口口口口 |②---|
口口口口 |----|
27
口口①口 |①---|
口口口口 |----|
口口口口 |----|
口口口口 |----|
28
口口口口 |①---|
口口②① |----|
口口口口 |②---|
口口口口 |----|
29
口口口口 |①---|
口①口口 |----|
口口口口 |----|
口口口口 |----|
30
口口口口 |①---|
口口口口 |----|
①②口口 |②---|
口口口口 |----|
31
口口口口 |①---|
口口口口 |----|
口口①口 |----|
口口口口 |----|
32
口口口口 |①---|
①口口① |----|
②口口② |----|
口口口口 |②---|
33
口口口口 |----|
口口口口 |----|
口口口口 |①---|
①口口① |----|
34
口口口口 |①---|
口口口口 |----|
口②口口 |②---|
口①口口 |----|
35
口②口口 |①---|
口①口口 |----|
口口口口 |②---|
口口口口 |----|
36
口口口口 |①---|
口口口口 |----|
口①①口 |----|
口口口口 |----|
37
口口口口 |----|
口口口口 |----|
口口口口 |----|
口口口口 |----|
38
口口口口 |①---|
口口口口 |----|
口口②口 |②---|
口口①口 |----|
39
口口②口 |①---|
口口①口 |----|
口口口口 |②---|
口口口口 |----|
40
口口口口 |①---|
口口口口 |----|
口①①口 |----|
口口口口 |----|
41
口口口口 |----|
口口口口 |----|
口口口口 |----|
口口口口 |----|
42
口口口口 |①---|
口口口口 |----|
口②口口 |②---|
口①口口 |----|
43
口②口口 |①---|
口①口口 |----|
口口口口 |②---|
口口口口 |----|
44
口口口口 |①---|
口口口口 |----|
口①①口 |----|
口口口口 |----|
45
口口口口 |----|
口口口口 |----|
口口口口 |----|
口口口口 |----|
46
口口口口 |①---|
口口口口 |----|
口口②口 |②---|
口口①口 |----|
47
口口②口 |①---|
口口①口 |----|
口口口口 |②---|
口口口口 |----|
48
口口口口 |①---|
口②②口 |----|
口①①口 |----|
口口口口 |②---|
49
①口口① |----①-|
②口口② |----②-|
③口口③ |----③-|
口口口口 |----|
50
口口口口 |①---|
口口口口 |----|
口口口口 |----|
口①口口 |----|
51
口口口口 |①---|
口口口口 |----|
口①口口 |----|
口口口口 |----|
52
口口口口 |①---|
口口口口 |----|
口口口口 |----|
口口①口 |----|
53
口口口口 |①---|
口口口口 |----|
口口①口 |----|
口口口口 |----|
54
口口口口 |①---|
口口口口 |----|
口口口口 |----|
口①口口 |----|
55
口口口口 |①---|
口口口口 |----|
口①口口 |----|
口口口口 |----|
56
口口口口 |①---|
口口②① |----|
口口口口 |②---|
口口口口 |----|
57
口口口口 |①---|
②①口口 |----|
口口口口 |②---|
口口口口 |----|
58
口口口口 |①---|
口口口口 |----|
①②口口 |②---|
口口口口 |----|
59
口口口口 |①---|
口口口口 |----|
口口①② |②---|
口口口口 |----|
60
口口口口 |①---|
口口口口 |----|
口②②口 |②---|
口①①口 |----|
61
口口口口 |①---|
口①①口 |----|
口口口口 |②---|
②口口② |----|
62
口口口口 |①---|
④口口口 |②---|
口③②① |③---|
口口口口 |④---|
63
口口口口 |①---|
口①②口 |②---|
口口口口 |----|
口口口口 |----|
64
①口口② |①---|
③口口④ |②---|
口口口口 |③---|
口口口口 |④---|
65
口口口口 |①---|
口口口口 |②---|
①口口② |③---|
③口口口 |----|
66
②②口口 |①---|
口口口口 |----|
口口口口 |②---|
口口①① |----|
67
口口口口 |①---|
口口①① |----|
②②口口 |②---|
口口口口 |----|
68
口①①口 |①---|
口②②口 |----②-|
口③③口 |----|
口口口口 |③---|
69
②口口② |--①-|
口口口口 |----|
口口口口 |②---|
③①①③ |③---|
70
口口口口 |①---|
口口口④ |②---|
①②③口 |③---|
口口口口 |④---|
71
口口口口 |①---|
口②①口 |②---|
口口口口 |----|
口口口口 |----|
72
②口口① |①---|
④口口③ |②---|
口口口口 |③---|
口口口口 |④---|
73
口口口口 |①---|
口口口口 |②---|
②口口① |③---|
口口口③ |----|
74
口口②② |①---|
口口口口 |----|
口口口口 |②---|
①①口口 |----|
75
口口口口 |①---|
①①口口 |----|
口口②② |②---|
口口口口 |----|
76
口②口① |①---|
口②口① |②---|
口口口口 |③---|
口③③口 |----|
77
①口②口 |①---|
①口②口 |②---|
口口口口 |③---|
③口口③ |----|
78
口②口① |①---|
口②口① |②---|
口口口口 |③---|
口③③口 |----|
79
①口②口 |①---|
①口②口 |②---|
口口口口 |③---|
③口口③ |----|
80
口口口口 |①---|
口口口口 |----|
口①①口 |②---|
口②②口 |----|
81
①口口① |①---|
②口口② |--②-|
③口口③ |----|
口口口口 |③---|
82
口口口口 |①---|
口口口口 |----|
口口口口 |----|
②①①② |----②-|
83
口口口口 |----①-|
口②②口 |----②-|
口①①口 |----|
口口口口 |----|
84
口口口口 |----|
①①①① |----|
口口口口 |----①-|
口口口口 |----|
85
①②口口 |①---|
口口口口 |----|
口口口口 |②---|
口口口口 |----|
86
口口①口 |①---|
口口口口 |----|
口口口口 |----|
口口口口 |----|
87
口口口口 |①---|
口口②① |----|
口口口口 |②---|
口口口口 |----|
88
口口口口 |①---|
口①口口 |----|
口口口口 |----|
口口口口 |----|
89
口口口口 |①---|
口口口口 |----|
①②口口 |②---|
口口口口 |----|
90
口口口口 |①---|
口口口口 |----|
口口①口 |----|
口口口口 |----|
91
口口口口 |①---|
①口口① |----|
②口口② |----|
口口口口 |②---|
92
口口口口 |----|
口口口口 |----|
口口口口 |①---|
①口口① |----|
93
③口口③ |①---|
口②②口 |--②-|
口①①口 |----|
口口口口 |--③-|
94
口口口口 |----|
口口口口 |①---|
口口口口 |----|
①口口① |----|

不確定度: 0

最終更新:2016年07月27日 15:44