GO! GO! MANIAC
放課後ティータイム

ADVANCED

Level: 8
BPM: 250
Notes: 525

1
口口口口 |----|
口口口口 |----|
口口口口 |----|
口口口口 |----|
2
口口口口 |----|
口口口口 |----|
口口口口 |----|
口口口口 |----|
3
口口口⑤ |①---②-|
④⑥口口 |③---④-|
口②③口 |----⑤-|
口口口① |----⑥-|
4
口口口口 |①---|
口口①口 |②---③-|
口口口口 |----|
②口口③ |----|
5
口口口口 |①---|
口口口口 |----|
口②口口 |②---|
口①口口 |----|
6
口口口口 |①---|
口①②③ |②---|
口口口口 |③---|
口口口口 |----|
7
口口口⑤ |①---②-|
④⑥口口 |③---④-|
口②③口 |----⑤-|
口口口① |----⑥-|
8
口口口口 |①---|
口口①口 |②---③-|
口口口口 |----|
②④④③ |④---|
9
口①①口 |①---|
③口口③ |②---|
口②②口 |③---|
④口口④ |④---|
10
①②②① |①---|
口①①口 |----|
口②②口 |②---|
口口口口 |----|
11
②口口③ |①---|
口②③口 |②---|
④口口① |③---|
口④①口 |④---|
12
口②口口 |①---|
②④③① |②---|
口口①口 |----③-|
口口口口 |④---|
13
③③①① |①---|
口口口口 |②---|
④④②② |③---|
口口⑤口 |④---⑤-|
14
口口口口 |----①-|
口②①口 |②---|
口口口口 |③---|
③口口③ |----|
15
①口口② |①---|
口口口口 |----|
②口口① |②---|
口口口口 |----|
16
口口口口 |①---|
口①②口 |----|
口④③口 |②---|
口②①口 |③-④---|
17
②⑥③① |①---|
口④⑤口 |②---|
②口口① |③---④-|
口口口口 |⑤---⑥-|
18
口口口口 |①---|
②口口① |②---|
口④⑤口 |③---④-|
②⑥③① |⑤---⑥-|
19
②⑥③① |①---|
口④⑤口 |②---|
②口口① |③---④-|
口口口口 |⑤---⑥-|
20
口口口口 |①---|
②口口① |②---|
口⑥③口 |③---④-|
②④⑤① |⑤---⑥-|
21
口①①口 |①---|
③口口② |----|
口口口口 |②---|
口口口口 |③---|
22
①口口① |①---|
口口口口 |----②-|
口③③口 |----|
②口口② |③---|
23
口口口口 |①---|
口④⑤① |②-③---|
口口口口 |--④-⑤-|
⑥②③⑥ |----⑥-|
24
②②②② |----①-|
口口口口 |----②-|
①口口① |----|
口口口口 |----|
25
①口口① |----|
口①①口 |----|
①口口① |----①-|
口口口口 |----|
26
口口口口 |①---|
口口④② |②---|
口口口口 |③---|
口口③① |④---|
27
口①①口 |①---|
口口口口 |②-③-|
口②③口 |----|
口口口口 |----|
28
口口口口 |①---|
②④口口 |②---|
口口口口 |③---|
①③口口 |④---|
29
口①①口 |①---|
口口口口 |②-③-|
口③②口 |----|
口口口口 |----|
30
口口口口 |①---|
口口④② |②---|
口口口口 |③---|
口口③① |④---|
31
口①①口 |①---|
口口口口 |②-③-|
口②③口 |----|
口口口口 |----|
32
①口口① |①---|
②口口② |--②-|
③口口③ |----|
口口口口 |③---|
33
口①①口 |--①-|
口口口口 |----|
口口口口 |②---|
③③②② |③---|
34
口口口⑤ |①---②-|
口④③口 |----③-|
②⑥口① |④---⑤-|
口口口口 |----⑥-|
35
②口口口 |①---②-|
口口口口 |----③-|
口口①⑤ |④---⑤-|
口④③口 |----|
36
口口口口 |①---|
口①①口 |----|
口口口口 |②---|
②口口② |----|
37
口①①口 |①---|
口口口口 |②-③-|
口②③口 |----|
口口口口 |----|
38
⑤口口口 |①---②-|
口③④口 |----③-|
①口⑥② |④---⑤-|
口口口口 |----⑥-|
39
口口口口 |①---②-|
口口口② |----③-|
⑤①口口 |④---⑤-|
口③④口 |----|
40
①口口① |①---|
②①①② |--②-|
③口口③ |----|
口口口口 |③---|
41
口①①口 |--①-|
口口口口 |----|
口口口口 |②---|
③③②② |③---|
42
口口口⑤ |①---②-|
口④③口 |----③-|
②⑥口① |④---⑤-|
口口口口 |----⑥-|
43
②口口口 |①---②-|
口口口口 |----③-|
口口①⑤ |④---⑤-|
口④③口 |----|
44
口口口口 |①---|
口①①口 |----|
口口口口 |②---|
②口口② |----|
45
口①①口 |①---|
口口口口 |②-③-|
口②③口 |----|
口口口口 |----|
46
⑤口口口 |①---②-|
口③④口 |----③-|
①口⑥② |④---⑤-|
口口口口 |----⑥-|
47
口口口口 |①---②-|
口口口② |----③-|
⑤①口口 |④---⑤-|
口③④口 |----|
48
①口口① |①---|
②①①② |--②-|
③口口③ |----|
口口口口 |③---|
49
②口口② |--①-|
口①①口 |----②-|
口口口口 |----③-|
③口口③ |----|
50
口口①口 |----|
③口②口 |①---②-|
⑤口④口 |③---④-|
口口⑥口 |⑤---⑥-|
51
口口口口 |①---|
口口口③ |②---③-|
口口口② |----|
①④口口 |④---|
52
口①口口 |----|
口②口③ |①---②-|
口④口⑤ |③---④-|
口⑥口口 |⑤---⑥-|
53
口口口口 |①---|
③口②口 |②---③-|
③口②口 |----|
口口口① |----|
54
口口①口 |----|
③口②口 |①---②-|
⑤口④口 |③---④-|
口口⑥口 |⑤---⑥-|
55
口口口口 |①---|
口口口③ |②---③-|
口口口② |----|
①④口口 |④---|
56
①口口② |①---|
⑤口口口 |②---③-|
口③④口 |④---|
口口⑥口 |⑤---⑥-|
57
⑤口口⑤ |①---|
口③④口 |②---③-|
口口口② |④---|
口①口口 |⑤---|
58
口①①口 |①---|
口口口口 |②---|
口②②口 |③---|
④③③④ |④---|
59
口口口③ |----|
②口口口 |①---|
口口口① |②---|
口口口口 |③---|
60
③①②口 |①---|
口①②口 |②---|
口⑤口④ |③---④-|
口口⑥口 |⑤---⑥-|
61
口②②口 |①---|
②口口② |----|
口口口口 |②---|
①口口口 |----|
62
③口口② |①---|
口③②口 |②---|
①口口④ |③---|
口①④口 |④---|
63
口口②口 |①---|
①③④② |②---|
口①口口 |----③-|
口口口口 |④---|
64
①①③③ |①---|
口口口口 |②---|
②②④④ |③---|
口⑤口口 |④---⑤-|
65
口口口口 |----①-|
口①②口 |②---|
口口口口 |③---|
③口口③ |----|
66
②口口① |①---|
口口口口 |----|
①口口② |②---|
口口口口 |----|
67
口口口口 |①---|
口②①口 |----|
口口口口 |②---|
③①②③ |③---|
68
④口口① |①---②-|
口⑥⑤口 |③---④-|
口②③口 |----⑤-|
口口口口 |⑥---|
69
口③②口 |①---|
口口口口 |--②-③-|
口④④口 |----|
①口口① |④---|
70
②口口③ |①---|
口②③口 |②---|
④口口① |③---|
口④①口 |④---|
71
口②口口 |①---|
②④③① |②---|
口口①口 |----③-|
口口口口 |④---|
72
③③①① |①---|
口口口口 |②---|
④④②② |③---|
口口⑤口 |④---⑤-|
73
口口口口 |----①-|
口②①口 |②---|
口口口口 |③---|
③口口③ |----|
74
①口口② |①---|
口口口口 |----|
②口口① |②---|
口口口口 |----|
75
口口口口 |①---|
口①②口 |----|
口④③口 |②---|
口②①口 |③-④---|
76
②⑥③① |①---|
口④⑤口 |②---|
②口口① |③---④-|
口口口口 |⑤---⑥-|
77
口口口口 |①---|
②口口① |②---|
口④⑤口 |③---④-|
②⑥③① |⑤---⑥-|
78
②⑥③① |①---|
口④⑤口 |②---|
②口口① |③---④-|
口口口口 |⑤---⑥-|
79
口口口口 |①---|
②口口① |②---|
口⑥③口 |③---④-|
②④⑤① |⑤---⑥-|
80
口①①口 |①---|
③口口② |----|
口口口口 |②---|
口口口口 |③---|
81
①口口① |①---|
口口口口 |----②-|
口③③口 |----|
②口口② |③---|
82
口口口口 |①---|
口④⑤① |②-③---|
口口口口 |--④-⑤-|
⑥②③⑥ |----⑥-|
83
②②②② |----①-|
口口口口 |----②-|
①口口① |----|
口口口口 |----|
84
①口口① |----|
口①①口 |----|
①口口① |----①-|
口口口口 |----|
85
口口口口 |①---|
口口④② |②---|
口口口口 |③---|
口口③① |④---|
86
口①①口 |①---|
口口口口 |②-③-|
口②③口 |----|
口口口口 |----|
87
口口口口 |①---|
②④口口 |②---|
口口口口 |③---|
①③口口 |④---|
88
口①①口 |①---|
口口口口 |②-③-|
口③②口 |----|
口口口口 |----|
89
口口口口 |①---|
口口④② |②---|
口口口口 |③---|
口口③① |④---|
90
口①①口 |①---|
口口口口 |②-③-|
口②③口 |----|
口口口口 |----|
91
①口口① |①---|
②口口② |--②-|
③口口③ |----|
口口口口 |③---|
92
口①①口 |--①-|
口口口口 |----|
口口口口 |②---|
③③②② |③---|
93
④④③③ |①-②-|
口②口口 |--③-|
口口①口 |--④-|
⑤口口⑤ |--⑤-|
94
口口口口 |----|
口①①口 |①---|
口①①口 |----|
口口口口 |----|

不確定度: 0

最終更新:2016年07月27日 15:43