GO! GO! MANIAC
放課後ティータイム

EXTREME

Level: 10
BPM: 250
Notes: 704

1
口口口口 |----|
口口口口 |----|
口口口口 |----|
口口口口 |----|
2
口口口① |----|
②口口口 |--①-|
口④口③ |②-③-|
口口口口 |--④-|
3
口口⑤口 |①---②-|
口②③⑤ |③---④-|
⑥口口口 |----⑤-|
④口口① |----⑥-|
4
①④口口 |①---|
③⑤口口 |②---③-|
口⑥口② |----|
口口口口 |④-⑤-⑥-|
5
口口口② |①---|
口口口口 |----|
口口口② |②---|
①口①口 |----|
6
口②③口 |①---|
②口口③ |②---|
口口①口 |③---|
口口口① |----|
7
口⑤口口 |①---②-|
⑤③②口 |③---④-|
口口口⑥ |----⑤-|
①口口④ |----⑥-|
8
口口④① |①---|
口口⑤③ |②---③-|
②口⑥口 |----|
口口口口 |④-⑤-⑥-|
9
口②口② |①---|
口口口④ |②---|
③④口口 |③---|
口①③① |④---|
10
①口③④ |①---|
①②①口 |----|
口口①③ |②---③-|
②口口口 |----④-|
11
⑤口口口 |①---②-|
③⑦②口 |③---④-|
①口④⑥ |⑤---|
口⑤口口 |⑥---⑦-|
12
⑦口口③ |①---②-|
口口⑥① |③---|
口②④口 |④---⑤-|
⑤口③口 |⑥---⑦-|
13
口口③⑤ |①---②-|
④口⑦口 |③---④-|
口⑥口口 |⑤---|
口②口① |⑥---⑦-|
14
①口③口 |----①-|
口口口③ |②---|
③口④口 |③---|
口③口② |④---|
15
口①口③ |①---|
①口③口 |②---|
口口口口 |③---|
口④②口 |④---|
16
口③口口 |①---|
③①口口 |②---|
①口口口 |③---|
口⑤④② |④-⑤-|
17
口口①② |①---|
口口②① |②---|
口⑥④口 |③---④-|
⑤口口③ |⑤---⑥-|
18
②①口口 |①---|
①②口口 |②---|
⑤口口③ |③---④-|
口⑥④口 |⑤---⑥-|
19
口口②① |①---|
口⑥④② |②---|
口口①口 |③---④-|
⑤口口③ |⑤---⑥-|
20
①②口口 |①---|
②口⑥③ |②---|
口①口口 |③---④-|
口⑤④口 |⑤---⑥-|
21
口口口口 |①---|
口①口口 |----|
口口口口 |②---|
③口口② |③---|
22
①①①① |①---|
②②②② |----②-|
③③③③ |----|
口口口口 |③---|
23
④⑥⑥② |①---|
口口口口 |②-③---|
口口口口 |--④-⑤-|
⑤①①③ |----⑥-|
24
口口口口 |----①-|
②口②② |----②-|
②②口② |----|
口①①口 |----|
25
①口口① |----|
口①①口 |----|
①口口① |----①-|
口口口口 |----|
26
口①④口 |①---②-|
口口口④ |③---|
口口⑤口 |④---|
口③②⑤ |⑤---|
27
②口口⑤ |①---|
①⑥④口 |②-③-|
①③口③ |----④-|
③口口口 |⑤---⑥-|
28
口④①口 |①---②-|
④口口口 |③---|
口⑤口口 |④---|
⑤②③口 |⑤---|
29
⑤口口② |①---|
口④⑥① |②-③-|
③口③① |----④-|
口口口③ |⑤---⑥-|
30
口①④口 |①---②-|
口口口④ |③---|
口口⑤口 |④---|
口③②⑤ |⑤---|
31
②口口⑤ |①---|
①⑥④口 |②-③-|
①③口③ |----④-|
③口口口 |⑤---⑥-|
32
口①①口 |①---|
②口口口 |②-③-|
口⑤⑤口 |--④-|
口③③④ |⑤---|
33
口④③② |①-②-|
④口②③ |----|
①口口口 |③---|
口口口口 |④---|
34
②口口⑤ |①---②-|
口⑥③口 |----③-|
⑥口口③ |④---⑤-|
④口口① |----⑥-|
35
口②⑤口 |①---②-|
⑥口口③ |----③-|
口⑥③口 |④---⑤-|
口④①口 |----⑥-|
36
口⑤口⑤ |①---②-|
口②③口 |③---|
口口口口 |④---|
④口④① |⑤---|
37
③口①口 |①---|
⑤②③⑥ |②-③-|
口③口① |----④-|
口口④③ |⑤---⑥-|
38
⑤口口② |①---②-|
口③⑥口 |----③-|
③口口⑥ |④---⑤-|
①口口④ |----⑥-|
39
口⑤②口 |①---②-|
③口口口 |----③-|
口③口口 |④---⑤-|
口①④口 |----|
40
⑤口口③ |①---|
⑤①①③ |②-③-|
②口口④ |--④-|
①口口① |⑤---|
41
口口口口 |①-②-|
口④口④ |----|
口②①口 |③---|
③口③口 |④---|
42
②口口③ |①---②-|
⑥口③口 |----③-|
口⑥口⑤ |④---⑤-|
口④口① |----⑥-|
43
④口①⑤ |①---②-|
口⑥口口 |----③-|
⑥口③口 |④---⑤-|
②口口③ |----⑥-|
44
口⑤⑤口 |①---②-|
口口口① |③---|
口口口口 |④---|
④②③④ |⑤---|
45
口口⑥① |①---|
③口③口 |②---③-|
②③①③ |----④-|
口⑤口④ |⑤---⑥-|
46
③口口② |①---②-|
口③口⑥ |----③-|
⑤口⑥口 |④---⑤-|
①口④口 |----⑥-|
47
⑤①口④ |①---②-|
口口口口 |----③-|
口③口口 |④---⑤-|
③口口② |----|
48
口③③口 |①---|
①口口① |②-③-|
口口②口 |----|
④①①④ |④---|
49
①口口① |--①-|
③③③③ |----②-|
①②②① |----③-|
口②②口 |----|
50
③④口② |①---|
口口口口 |②---③-|
口⑥口⑦ |④---⑤-|
①⑤口① |⑥---⑦-|
51
④口口③ |①---|
口②口口 |②-③-|
口口①口 |----|
③口口④ |④---|
52
口②口口 |①---|
口⑦③④ |②---③-|
⑥⑤口口 |④---⑤-|
口①①口 |⑥---⑦-|
53
①口①口 |①---|
口口口口 |②---③-|
口口口口 |----|
③③②② |----|
54
③口口② |①---|
①④口① |②---③-|
①口⑥① |④---⑤-|
⑦口口⑤ |⑥---⑦-|
55
口②②口 |①---|
④口口④ |②---③-|
口①口口 |----|
口③③口 |④---|
56
②⑥口① |①---|
口口①口 |②---③-|
口④口③ |④---|
④口⑤口 |⑤---⑥-|
57
④口口⑤ |①---|
口④⑤③ |②---③-|
②⑤①口 |④---|
⑤口口① |⑤---|
58
口③③口 |①---|
②口口④ |②---|
④口口② |③---|
口①①口 |④---|
59
口口口口 |----|
③口口口 |①---|
口口口② |②---|
口①①口 |③---|
60
①⑥③① |①---|
口①①口 |②---|
口②②口 |③---④-|
②④⑤② |⑤---⑥-|
61
⑤口口口 |①---|
④口口① |----|
③口口口 |②③④⑤|
②口口口 |----|
62
口口口⑤ |①---②-|
口②⑦③ |③---④-|
⑥④口① |⑤---|
口口⑤口 |⑥---⑦-|
63
③口口⑦ |①---②-|
①⑥口口 |③---|
口④②口 |④---⑤-|
口③口⑤ |⑥---⑦-|
64
⑤③口口 |①---②-|
口⑦口④ |③---④-|
口口⑥口 |⑤---|
①口②口 |⑥---⑦-|
65
口③口① |----①-|
③口口口 |②---|
口④口③ |③---|
②口③口 |④---|
66
④口①口 |①---|
口④口① |②---③-|
口口口口 |④---|
口②⑤③ |⑤---|
67
口口③口 |①---|
口口①③ |②---|
口口口① |③---|
②④⑤口 |④-⑤-|
68
⑥①⑤④ |①---②-|
①⑥④⑤ |③---④-|
口③口口 |----⑤-|
口口口② |⑥---|
69
口④⑤口 |①-②---|
口口口口 |--③-④-|
口⑤②口 |----|
口①③口 |⑤---|
70
⑤口口口 |①---②-|
③⑦②口 |③---④-|
①口④⑥ |⑤---|
口⑤口口 |⑥---⑦-|
71
⑦口口③ |①---②-|
口口⑥① |③---|
口②④口 |④---⑤-|
⑤口③口 |⑥---⑦-|
72
口口③⑤ |①---②-|
④口⑦口 |③---④-|
口⑥口口 |⑤---|
口②口① |⑥---⑦-|
73
①口③口 |----①-|
口口口③ |②---|
③口④口 |③---|
口③口② |④---|
74
口①口③ |①---|
①口③口 |②---|
口口口口 |③---|
口④②口 |④---|
75
口③口口 |①---|
③①口口 |②---|
①口口口 |③---|
口⑤④② |④-⑤-|
76
口口①② |①---|
口口②① |②---|
口⑥④口 |③---④-|
⑤口口③ |⑤---⑥-|
77
②①口口 |①---|
①②口口 |②---|
⑤口口③ |③---④-|
口⑥④口 |⑤---⑥-|
78
口口②① |①---|
口⑥④② |②---|
口口①口 |③---④-|
⑤口口③ |⑤---⑥-|
79
①②口口 |①---|
②口⑥③ |②---|
口①口口 |③---④-|
口⑤④口 |⑤---⑥-|
80
口口口口 |①---|
口①口口 |----|
口口口口 |②---|
③口口② |③---|
81
①①①① |①---|
②②②② |----②-|
③③③③ |----|
口口口口 |③---|
82
④⑥⑥② |①---|
口口口口 |②-③---|
口口口口 |--④-⑤-|
⑤①①③ |----⑥-|
83
口口口口 |----①-|
②口②② |----②-|
②②口② |----|
口①①口 |----|
84
①口口① |----|
口①①口 |----|
①口口① |----①-|
口口口口 |----|
85
口①④口 |①---②-|
口口口④ |③---|
口口⑤口 |④---|
口③②⑤ |⑤---|
86
②口口⑤ |①---|
①⑥④口 |②-③-|
①③口③ |----④-|
③口口口 |⑤---⑥-|
87
口④①口 |①---②-|
④口口口 |③---|
口⑤口口 |④---|
⑤②③口 |⑤---|
88
⑤口口② |①---|
口④⑥① |②-③-|
③口③① |----④-|
口口口③ |⑤---⑥-|
89
口①④口 |①---②-|
口口口④ |③---|
口口⑤口 |④---|
口③②⑤ |⑤---|
90
②口口⑤ |①---|
①⑥④口 |②-③-|
①③口③ |----④-|
③口口口 |⑤---⑥-|
91
口①①口 |①---|
②口口口 |②-③-|
口⑤⑤口 |--④-|
口③③④ |⑤---|
92
口④③② |①-②-|
④口②③ |----|
①口口口 |③---|
口口口口 |④---|
93
⑤口口⑤ |①-②-|
口④④口 |--③-|
③口口③ |--④-|
口②①口 |--⑤-|
94
口①①口 |----|
①口口① |①---|
口①①口 |----|
口口口口 |----|

不確定度: 0

最終更新:2016年07月27日 15:42