ALL MY HEART -この恋に、わたしの全てを賭ける-
SUPER HEROINE 彩香 -AYAKA-

EXTREME

Level: 9
BPM: 160
Notes: 643

1
口口口口 |----|
口口口口 |----|
口口口口 |----|
口口口口 |----|
2
③③口⑥ |①--②|
⑦⑦④口 |③-④-|
口口②⑦ |⑤⑥--|
①⑤①⑧ |⑦-⑧-|
3
⑤①口⑥ |①--②|
口⑧④口 |③-④-|
⑦⑦②⑦ |⑤⑥--|
③③①⑧ |⑦-⑧-|
4
⑤①口⑥ |①--②|
口口④口 |③-④-|
⑦⑦②⑦ |⑤⑥--|
③③①⑧ |⑦-⑧-|
5
③③口⑤ |①--②|
⑦⑦④⑥ |③-④-|
⑧口②⑧ |⑤--⑥|
①⑤①口 |⑦-⑧-|
6
③③①⑧ |①--②|
⑦⑦②⑦ |③-④-|
口口④口 |⑤⑥--|
①⑤口⑥ |⑦-⑧-|
7
⑤①①口 |①--②|
口⑧②⑧ |③-④-|
⑦⑦④⑥ |⑤--⑥|
③③口⑤ |⑦-⑧-|
8
口①①口 |①--②|
口口②口 |③-④-|
口口口口
③③口④

⑤口⑧口
⑦⑦口口
口口口⑥ |⑤⑥--|
口口⑦口 |⑦-⑧-|
9
④③口口 |①②-③|
口口①口 |④-⑤-|
口②⑤口
①①口口

口口口⑥
口口口口
口⑪口⑩ |⑥-⑦-|
⑧口⑨⑦ |⑧⑨⑩⑪|
10
口口①口 |-①--|
口②⑧① |②-③-|
④⑦⑤口 |④--⑤|
口③⑥口 |-⑥⑦⑧|
11
口①⑥⑦ |-①--|
①③口口 |②-③-|
④口⑤口 |④-⑤-|
口②口⑧ |⑥⑦-⑧|
12
口①口口 |-①--|
①⑧②口 |②-③-|
⑤口⑦④ |④--⑤|
口⑥③口 |-⑥⑦⑧|
13
⑦⑥①口 |-①--|
口口③① |②-③-|
口⑤口④ |④-⑤-|
⑧口②口 |⑥⑦-⑧|
14
口口①口 |-①--|
口②⑧① |②-③-|
④⑦⑤口 |④--⑤|
口③⑥口 |-⑥⑦⑧|
15
口①⑥⑦ |-①--|
①③口口 |②-③-|
④口⑤口 |④-⑤-|
口②口⑧ |⑥⑦-⑧|
16
口①⑧口 |-①--|
①⑦②口 |②-③-|
口④⑥⑤ |④--⑤|
口口③口 |-⑥⑦⑧|
17
①⑨⑩④ |①②③④|
⑥⑪⑫⑤ |-⑤-⑥|
⑤⑦⑦⑥ |-⑦-⑧|
③⑧⑧② |⑨⑩⑪⑫|
18
③口口① |①---|
口口口口 |②-③-|
口口口口
②口口②

口④口⑥
口口口口
口口口口 |④---|
口⑤⑤口 |⑤-⑥-|
19
③口①⑤ |①---|
④口口⑥ |②-③-|
口⑦口口 |④-⑤-|
②⑥⑥② |⑥-⑦-|
20
口⑥口口 |①---|
口①④口 |②-③-|
口口③口 |④---|
②⑤⑤② |⑤-⑥-|
21
③口①口 |①---|
口口口口 |②-③-|
口口口口
②口口②

口口⑦⑤
口口口④
口⑥口口 |④-⑤-|
口⑥⑥口 |⑥-⑦-|
22
口口口口 |①--②|
口口①④ |③-④-|
②口口口
③口口③

⑤口口⑥
口⑦⑧口
口口口口 |--⑤-|
口⑥⑥口 |⑥-⑦⑧|
23
口口③口 |----|
口⑤口口 |①---|
④口②口 |②-③-|
①④④① |④-⑤-|
24
①口口③ |①---|
口⑥口④ |②-③-|
口口口口 |④---|
②⑤⑤② |⑤-⑥-|
25
口②②口 |①---|
口口①口 |②---|
口口口口
口口口口

⑩口口⑨
口⑧⑦口
口⑥⑤口 |③④⑤⑥|
口④③口 |⑦⑧⑨⑩|
26
口④口⑥ |①---|
③口口① |②-③-|
口口口口 |④---|
②⑤⑤② |⑤-⑥-|
27
③口①⑤ |①---|
④口口⑥ |②-③-|
口⑦口口 |④-⑤-|
②⑥⑥② |⑥-⑦-|
28
口⑥口口 |①---|
口①④口 |②-③-|
口口③口 |④---|
②⑤⑤② |⑤-⑥-|
29
③口①口 |①---|
口口口口 |②-③-|
口口口口
②口口②

口口⑦⑤
口口口④
口⑥口口 |④-⑤-|
口⑥⑥口 |⑥-⑦-|
30
⑤口口⑥ |①--②|
⑦⑧①④ |③-④-|
②口口口 |--⑤-|
③⑥⑥③ |⑥-⑦⑧|
31
口④④口 |----|
口口口口 |①---|
⑤①①口 |②--③|
②口口③ |④-⑤-|
32
④口口④ |①---|
⑤③③⑤ |②-③-|
口⑥⑥① |--④-|
口②②口 |⑤-⑥-|
33
③口①口 |-①--|
⑧④⑥⑦ |②-③-|
②口口口 |④-⑤-|
口口⑤口 |⑥⑦-⑧|
34
口④口① |①-②-|
口口口口 |③-④-|
口口②口
口③口口

口口口⑧
口口口口
⑤口口⑦ |⑤⑥-⑦|
⑥口口口 |--⑧-|
35
①口口口 |①--②|
口①口② |--③-|
③口②口 |----|
口③④口 |--④-|
36
⑧③①口 |①-②-|
口口口口 |③-④-|
②④口⑤ |⑤⑥-⑦|
⑦口口⑥ |--⑧-|
37
口口口① |①--②|
②口①口 |--③-|
口②口③
口口③口

⑤④④⑤
口口口口
口口口口 |----|
口口口口 |④-⑤-|
38
口口口口 |①---|
①口口① |--②-|
②口口口
口②口口

口⑥口④
⑥③④口
口④③⑤ |③-④-|
口口⑤③ |⑤-⑥-|
39
口口②口 |--①-|
口②口① |----|
①③③口 |②---|
口口口口 |③---|
40
④④④④ |①---|
口口口口 |----|
口③③口 |--②-|
①②②① |③-④-|
41
⑭⑯⑮⑬ |①②③④|
⑧⑥⑤⑦ |⑤⑥⑦⑧|
④⑫⑪③ |⑨⑩⑪⑫|
②⑩⑨① |⑬⑭⑮⑯|
42
口口⑤口 |--①-|
⑥⑤①② |②-③④|
④⑥⑦口 |--⑤-|
③⑦口口 |⑥-⑦-|
43
①⑥口口 |--①-|
口口口口 |②-③④|
②口口④ |--⑤-|
⑤口⑦③ |⑥-⑦-|
44
口口①口 |①--②|
②①②① |--③-|
口②③口 |----|
口③④③ |--④-|
45
口②③口 |①---|
②口口③ |②---|
②①口③ |③---|
口④④口 |④---|
46
①口口② |①---|
口②①口 |--②-|
口①②口 |----|
②③口① |--③-|
47
③①口口 |①---|
③口口口 |②---|
③口口② |③---|
口④④口 |④---|
48
口②②① |①--②|
口口口① |--③-|
口③③① |----|
③口口③ |----|
49
③④⑤口 |----|
②口④⑤ |--①-|
①③口口 |②-③-|
口②①口 |④⑤--|
50
口口口口 |--①-|
口口口口 |②-③④|
④口①②
③口口口

口口⑤口
⑥⑤口口
口⑥⑦口 |--⑤-|
口⑦口口 |⑥-⑦-|
51
①⑥口口 |--①-|
口口口口 |②-③④|
②口口④ |--⑤-|
⑤口⑦③ |⑥-⑦-|
52
口口①口 |①--②|
②①②① |--③-|
④②③口 |----|
口③口③ |--④-|
53
④②口④ |①---|
②③②③ |②---|
口口③① |③---|
口口口口 |④---|
54
口口口口 |①---|
⑤③②口 |--②-|
口口口④ |③--④|
口①①口 |--⑤-|
55
②口口③ |①---|
④④④④ |--②-|
⑤⑤⑤⑤ |③--④|
口①①口 |--⑤-|
56
口口口口 |①---|
口口口口 |----|
口口口口 |----|
①①①① |----|
57
口口口口 |①---|
口①①口 |----|
口①①口 |----|
口①①口 |----|
58
③③口⑥ |①--②|
⑦⑦④口 |③-④-|
口口②⑦ |⑤⑥--|
①⑤①⑧ |⑦-⑧-|
59
⑤①口⑥ |①--②|
口⑧④口 |③-④-|
⑦⑦②⑦ |⑤⑥--|
③③①⑧ |⑦-⑧-|
60
⑤①口⑥ |①--②|
口口④口 |③-④-|
⑦⑦②⑦ |⑤⑥--|
③③①⑧ |⑦-⑧-|
61
③③口⑤ |①--②|
⑦⑦④⑥ |③-④-|
⑧口②⑧ |⑤--⑥|
①⑤①口 |⑦-⑧-|
62
③③①⑧ |①--②|
⑦⑦②⑦ |③-④-|
口口④口 |⑤⑥--|
①⑤口⑥ |⑦-⑧-|
63
⑤①①口 |①--②|
口⑧②⑧ |③-④-|
⑦⑦④⑥ |⑤--⑥|
③③口⑤ |⑦-⑧-|
64
⑤①①⑥ |①--②|
口口②口 |③-④-|
⑦⑦④⑦ |⑤⑥--|
③③口⑧ |⑦-⑧-|
65
⑤①②⑤ |①②③④|
⑥③④⑥ |-⑤-⑥|
口口口口
口口口口

口⑨⑩口
口⑪⑫口
⑦口口⑦ |-⑦-⑧|
口⑧⑧口 |⑨⑩⑪⑫|


不确定度: 0

タグ:

+ タグ編集
  • タグ:

このサイトはreCAPTCHAによって保護されており、Googleの プライバシーポリシー利用規約 が適用されます。

最終更新:2012年11月10日 14:15