Clattanoia
OxT

EXTREME

Level: 9
BPM: 190
Notes: 679

1
口口口口 |----|
口口口口 |----|
口口口口 |----|
口口口口 |----|
2
④⑧⑤① |①-②-|
⑧④①⑤ |③-④-|
⑥②③⑦ |⑤-⑥-|
②⑥⑦③ |⑦-⑧-|
3
口口⑦⑤ |--①-|
⑦⑥①口 |②-③-|
口④口⑦ |④-⑤-|
②⑦口③ |⑥-⑦-|
4
②口口口 |----|
口⑤③① |①-②-|
口⑤①口 |③-④-|
④口⑥③ |⑤-⑥-|
5
③①口② |①-②-|
①口口口 |③-④-|
口口口④
口口口口

口⑧口口
口口口⑧
⑧⑦⑥口 |⑤-⑥-|
口⑤⑧口 |⑦-⑧-|
6
①口④口 |----|
③①口口 |①-②-|
口⑤⑤口 |③-④-|
③⑥口② |⑤-⑥-|
7
②口口口 |①-②-|
口口口① |③-④-|
④口口①
口口③口

口口口⑦
口⑤⑤口
口⑥⑥⑦ |⑤-⑥-|
口口口口 |--⑦-|
8
③①口⑥ |①-②-|
⑤口口② |--③-|
③口④⑥ |④-⑤-|
⑤口口② |--⑥-|
9
口口口⑤ |①-②-|
口③④② |--③-|
口①口⑤ |--④-|
口④③② |--⑤-|
10
③①口⑥ |①-②-|
⑤口口② |--③-|
③口口⑥ |④-⑤-|
⑤口④② |--⑥-|
11
口口口⑤ |①-②-|
口③④② |--③-|
口①口⑤ |--④-|
口④③② |--⑤-|
12
③①口⑥ |①-②-|
⑤口④② |--③-|
③口口⑥ |④-⑤-|
⑤口口② |--⑥-|
13
口口口⑤ |①-②-|
口③④② |--③-|
口①口⑤ |--④-|
口④③② |--⑤-|
14
③口④⑥ |①-②-|
⑤口口② |--③-|
③①口⑥ |④-⑤-|
⑤口口② |--⑥-|
15
口①⑥口 |①-②-|
⑫⑤⑨② |③④⑤⑥|
口⑧④⑪ |--⑦⑧|
⑩③⑦② |⑨⑩⑪⑫|
16
口④口① |--①-|
口⑥口口 |②-③-|
⑤口口口 |④-⑤-|
⑦②口③ |⑥-⑦-|
17
⑥口⑤口 |①-②-|
④⑥口⑤ |③-④-|
口口②① |⑤-⑥-|
口③口口 |----|
18
口口口口 |①---|
口口口口 |②---|
口口口口
口口②①

口口口口
口口口口
④口口口 |③-④-|
口③口⑤ |--⑤-|
19
口④②口 |①-②-|
口口口口 |③-④-|
口①③口 |⑤---|
口⑤⑤口 |----|
20
④④口口 |--①-|
口口③口 |②-③-|
口口①② |④-⑤-|
⑤⑤口口 |----|
21
口口③③ |①-②-|
②⑥⑤⑤ |③-④-|
口①口口 |--⑤-|
⑤⑤④④ |--⑥-|
22
①③②④ |①-②-|
口⑥口口 |③-④-|
②④①③ |⑤---|
口⑤⑤口 |--⑥-|
23
①③②④ |--①-|
口口口口 |②-③-|
②④①③ |④---|
口口口口 |----|
24
口口⑤口 |--①-|
④⑥①口 |②-③-|
口口②口 |④-⑤-|
口③口⑦ |⑥-⑦-|
25
⑥口⑤口 |①-②-|
④⑥口⑤ |③-④-|
①口②口 |⑤-⑥-|
口③口口 |----|
26
口口口口 |①---|
口口口口 |②---|
口口口口
口口②①

口口口口
口口口口
④口口口 |③-④-|
口③口⑤ |--⑤-|
27
口④②口 |①-②-|
口口口口 |③-④-|
口①③口 |⑤---|
口⑤⑤口 |----|
28
④④口口 |--①-|
口口③口 |②-③-|
⑥口①② |④-⑤-|
⑤⑤口口 |--⑥-|
29
口口③③ |①-②-|
②⑤口口 |③-④-|
口①⑥口 |--⑤-|
口⑦④④ |⑥-⑦-|
30
③④④口 |①---|
③④口② |②---|
③口④② |③---|
①④④口 |④---|
31
⑤口口① |①-②-|
⑤口③口 |③-④-|
口④口⑤ |⑤---|
②口口⑤ |----|
32
③口口口 |①---|
口口口② |②---|
③④④口 |③---|
①口口口 |④---|
33
口口③② |--①-|
④口口口 |②---|
口⑥口② |③-④-|
①口⑤口 |⑤-⑥-|
34
口口口口 |①-②-|
口③①口 |③---|
③口口口 |----|
口④⑤② |④-⑤-|
35
①②④③ |①-②-|
⑤⑥⑧⑦ |③-④-|
口口口口 |⑤-⑥-|
口口口口 |⑦-⑧-|
36
口口口口 |①-②-|
口口口⑥ |③-④-|
①②④③ |⑤---|
⑤口口口 |⑥---|
37
①口口④ |①---|
口口口口 |②---|
①②②④ |--③-|
③口口口 |④---|
38
③口⑤口 |①-②-|
口⑥口② |③-④-|
口④⑦口 |⑤-⑥-|
口①口⑦ |⑦---|
39
口口③口 |----|
④④口③ |①-②-|
②口口① |③---|
口③口④ |④---|
40
②③④① |①---|
口④①口 |②---|
②①②③ |③---|
④口③口 |④---|
41
②④口③ |①-②-|
④口③① |--③-|
②⑥⑤口 |④---|
口⑥⑤① |⑤-⑥-|
42
⑤口⑦⑥ |--①-|
⑦①④口 |②-③-|
口口口⑦ |④-⑤-|
③⑦口② |⑥-⑦-|
43
④⑤⑤口 |----|
口口口③ |①-②-|
⑥②①口 |③-④-|
口口③① |⑤-⑥-|
44
口⑧口口 |①-②-|
⑦①①⑧ |③-④-|
⑧⑤④口 |⑤-⑥-|
②③⑧⑥ |⑦-⑧-|
45
③口口④ |----|
口口②口 |①-②-|
⑥③⑤⑤ |③-④-|
①①口口 |⑤-⑥-|
46
口①①口 |①-②-|
口口④口 |③-④-|
口口口口
③口口②

口⑦⑦口
⑤口口⑤
口⑥⑥口 |⑤-⑥-|
口⑦⑦口 |--⑦-|
47
口④④口 |----|
②口口② |①---|
口③③口 |②-③-|
①④④① |--④-|
48
口④④口 |----|
②口口② |①---|
口③③口 |②-③-|
①④④① |--④-|
49
①口口① |----|
口③③口 |①---|
①口口① |②-③-|
②④④② |--④-|
50
④⑨⑨③ |--①-|
⑥口口⑤ |②---|
⑧②①⑦ |③④⑤⑥|
口口口口 |⑦⑧⑨-|
51
④口口③ |----|
口①③口 |①-②-|
口⑥①口 |③-④-|
②⑤⑤口 |⑤-⑥-|
52
⑤⑧①⑥ |①-②-|
口②口⑧ |③-④-|
⑧口③① |⑤-⑥-|
口⑦⑧④ |⑦-⑧-|
53
口口⑤⑥ |----|
口③③口 |①-②-|
口①⑤口 |③-④-|
①④口② |⑤-⑥-|
54
①①口口 |①---|
③口口口 |②-③-|
口口口口
②口口②

口⑥⑥口
口口口④
口⑤⑤口 |④-⑤-|
口⑥⑥口 |--⑥-|
55
口⑤⑤口 |----|
②口口③ |①-②-|
口④④口 |③-④-|
①⑤⑤① |--⑤-|
56
口④④口 |----|
②口口② |①---|
口③③口 |②-③-|
①④④① |--④-|
57
⑥口口⑥ |--①-|
口③②口 |②-③-|
口⑤⑤口 |④---|
④口口① |⑤-⑥-|
58
口口⑥口 |--①-|
⑤口口② |----|
口⑦④⑧ |②③④⑤|
③①①⑧ |⑥⑦⑧-|
59
口②口② |--①-|
⑥④⑥④ |②-③-|
口⑦⑦口 |④-⑤-|
⑤①③口 |⑥-⑦-|
60
③⑦③⑦ |①-②-|
口⑤口⑤ |③-④-|
④⑧⑧口 |⑤-⑥-|
口①⑥② |⑦-⑧-|
61
③口⑥口 |--①-|
口⑤②口 |②-③-|
口口口口 |④-⑤-|
①⑦口④ |⑥-⑦-|
62
⑦⑥口⑦ |①-②-|
②口⑤③ |③-④-|
⑦⑥①⑦ |⑤-⑥-|
④口⑤口 |--⑦-|
63
口⑦⑥口 |--①-|
④②④② |②-③-|
⑦口口⑥ |④-⑤-|
口③⑤① |⑥-⑦-|
64
①口口② |--①-|
④口口⑤ |②-③-|
口口口口 |④---|
③⑤④口 |⑤---|
65
①③①③ |①-②-|
⑤⑦⑤⑦ |③-④-|
②口口④ |⑤-⑥-|
⑥口口⑧ |⑦-⑧-|
66
口口口口 |①---|
口口口口 |②---|
口②①口
口①②口

口④④口
口⑤口⑤
③口口③ |③--④|
口⑤口⑤ |--⑤-|
67
①口口④ |----|
③口②口 |--①-|
①口口④ |②-③-|
③口口口 |--④-|
68
口口口⑤ |①-②-|
口③④② |--③-|
口①口⑤ |--④-|
口④③② |--⑤-|
69
③①口⑥ |①-②-|
⑤口口② |--③-|
③口口⑥ |④-⑤-|
⑤口④② |--⑥-|
70
⑤①口⑤ |①-②-|
口③④② |--③-|
口口口口 |--④-|
口④③② |--⑤-|
71
口⑤②口 |--①-|
口口④口 |--②-|
口④口③ |③-④-|
①口口① |--⑤-|
72
口⑥③口 |①-②-|
口②⑤口 |--③-|
①⑤②④ |④-⑤-|
口口口口 |--⑥-|
73
④口口⑥ |①-②-|
口②口口 |--③-|
①口②口 |④-⑤-|
⑤口③⑦ |⑥-⑦-|
74
⑤②②⑤ |①-②-|
口④④口 |--③-|
⑤③③⑤ |--④-|
口①口口 |--⑤-|

不確定度: 0

最終更新:2016年07月27日 15:29