CIRCUS U CRIC
Nanako

BASIC

Level: 4
BPM: 185
Notes: 254

1
口口口口 |----|
口口口口 |----|
口口口口 |----|
口口口口 |----|
2
|①---|
口口口② |--②-|
口口口① |----|
口口口口 |③---|
3
口口口 |----|
口口口口 |----|
口口口口 |----|
口口口口 |--①-|
4
口口口口 |①---|
|--②-|
口口②口 |----|
口口①口 |③---|
5
口口口口 |----|
口口口 |----|
口口口口 |----|
口口口口 |--①-|
6
|①---|
口口口② |--②-|
口口口① |----|
口口口口 |③---|
7
口口口 |----|
口口口口 |----|
口口口口 |----|
口口口口 |--①-|
8
口口口口 |①---|
|--②-|
口口②口 |----|
口口①口 |③---|
9
口口口口 |----|
口口口 |----|
口口口口 |--①-|
口口口口 |----|
10
①②口口 |①---|
口口口口 |--②-|
口口口口 |----|
口口口口
11
口口①② |①---|
口口口口 |--②-|
口口口口 |----|
口口口口
12
口口口口 |①---|
①口口口 |--②-|
口②口口 |----|
口口口口
13
口口口③ |①---|
口口①② |②---|
口口口口 |③---|
口口口口
14
①②口口 |①---|
口口口口 |--②-|
口口口口 |----|
口口口口
15
口口①② |①---|
口口口口 |--②-|
口口口口 |----|
口口口口
16
口口口口 |①---|
①口口口 |--②-|
口②口口 |----|
口口口口
17
口口口③ |①---|
口口①② |②---|
口口口口 |③---|
口口口口
18
①②口口 |①---|
口口口口 |--②-|
口口口口 |----|
口口口口
19
口口①② |①---|
口口口口 |--②-|
口口口口 |----|
口口口口
20
口口口口 |①---|
①口口口 |--②-|
口②口口 |----|
口口口口
21
口口口③ |①---|
口口①② |②---|
口口口口 |③---|
口口口口
22
①②口口 |①---|
口口口口 |--②-|
口口口口 |----|
口口口口
23
口口①② |①---|
口口口口 |--②-|
口口口口 |----|
口口口口
24
口口口口 |①---|
①口口口 |--②-|
口②口口 |----|
口口口口
25
口口口③ |①---|
口口①② |②---|
口口口口 |③---|
口口口口
26
口①口口 |①---|
口②口口 |②---|
口③口口 |③---|
口④口口 |④---|
27
口口口口 |----|
口口口口 |----|
口口口口 |----|
口口口口 |----|
28
口口口口 |①---|
口口口口 |----|
口②口口 |②---|
①口口口 |----|
29
口口口口 |①---|
口口口② |②---|
口口①口 |----|
口口口口 |----|
30
口口口口 |①---|
口口口口 |----|
口②口口 |②---|
①口口口 |----|
31
口口口② |①---|
口口口口 |②---|
口口①口 |----|
口口口口 |----|
32
口口口口 |①---|
口口口口 |----|
①②口口 |②---|
口口口口 |----|
33
口口口口 |①---|
口口口口 |----|
口口①② |②---|
口口口口 |----|
34
口口口口 |①---|
①口口口 |----|
口②口口 |②---|
口口口口 |----|
35
口口口③ |①---|
口口口② |②-③-|
口口①口 |----|
口口口口 |----|
36
口口口口 |①---|
口口口口 |----|
口②口口 |②---|
①口口口 |----|
37
口口口口 |①---|
口口口② |②---|
口口①口 |----|
口口口口 |----|
38
口口口口 |①---|
口口口口 |----|
口②口口 |②---|
①口口口 |----|
39
口口口② |①---|
口口口口 |②---|
口口①口 |----|
口口口口 |----|
40
口口口口 |①---|
口口口口 |----|
①②口口 |②---|
口口口口 |----|
41
口口口口 |①---|
口口口口 |----|
口口①② |②---|
口口口口 |----|
42
口口口口 |①---|
口口口口 |----|
口②口口 |②---|
口①口口 |----|
43
口口口口 |①---|
口①口口 |----|
口口口口 |----|
口口口口 |----|
44
口口口口 |①---|
口口口口 |--②-|
口②口口 |----|
口①③口 |③---|
45
口口口② |--①-|
口口口③ |----|
口口①口 |②---|
口口口口 |③---|
46
②口口 |①---|
口口口 |----|
口口① |②---|
口口口 |--③-|
47
口口口口 |----|
口口口口 |----|
口口口口 |①---|
口口口 |----|
48
口口 |①---|
口口 |----|
①口 |②---|
口口 |----|
49
口口口口 |----|
口口口② |①---|
口口口口 |②---|
口口 |----|
50
口口口口 |①---|
口口口口 |----|
口③口① |②---|
口口②口 |--③-|
51
口②口口 |--①-|
口①口口 |--②-|
口口口口 |----|
口口口口 |----|
52
口②口口 |①---|
①口口口 |----|
口口口口 |②---|
口口口口
53
口口①口 |①---|
口口②口 |----|
口口口口 |②---|
口口口口
54
口口口口 |①---|
②口口① |----|
口口口口 |②---|
口口口口
55
口口口口 |①---|
口口口口 |②---|
口①②③ |③---|
口口口口
56
①②③口 |①---|
口口口口 |②---|
口口口口 |③---|
口口口口
57
口口口口 |①---|
口①②③ |②---|
口口口口 |③---|
口口口口
58
口口口口 |①---|
口口口口 |②---|
①②③口 |③---|
口口口口
59
口口口 |①---|
口口口 |②---|
口口①
口口口

口口口
口口口口
口口口口 |--③-|
口口口口
60
口口口口 |①---|
口口口③ |②-③-|
口①②口 |----|
口口口口
61
口口口③ |①---|
口①②口 |②-③-|
口口口口 |----|
口口口口
62
口口口口 |①---|
口口口③ |②-③-|
口①②口 |----|
口口口口
63
口口口③ |①---|
口①②口 |②-③-|
口口口口 |----|
口口口口
64
口口口口 |①---|
口口口③ |②-③-|
口①②口 |----|
口口口口
65
口口口③ |①---|
口①②口 |②-③-|
口口口口 |----|
口口口口
66
口口口口 |①---|
口③口口 |②---|
口②口口 |③---|
口①口口
67
口①口口 |①---|
③口口口 |②---|
②口口口 |③---|
口口口口
68
口口口 |①---|
口口口 |----|
口口口 |----|
口口口 |----|
69
口口口 |----|
口口口口 |----|
口口口口 |①---|
口口口口 |----|
70
口口口口 |①---|
口①口口 |----|
口口②口 |----|
口口口口 |②---|
71
口①口口 |----|
口口口口 |----|
口口口口 |①---|
口口口口 |----|
72
口口口④ |①---|
口口口③ |----|
口①口② |②---③-|
口口口口 |--④---|
73
口②口口 |①---|
①口口口 |----|
口口口口 |②---|
口口口口
74
口口①口 |①---|
口口②口 |----|
口口口口 |②---|
口口口口
75
口口口口 |①---|
②口口① |----|
口口口口 |②---|
口口口口
76
口口口口 |①---|
口口口口 |②---|
口①②③ |③---|
口口口口
77
①②③口 |①---|
口口口口 |②---|
口口口口 |③---|
口口口口
78
口口口口 |①---|
口①②③ |②---|
口口口口 |③---|
口口口口
79
口口口口 |①---|
口口口口 |②---|
①②③口 |③---|
口口口口
80
口口口 |①---|
口口口 |②---|
口口①
口口口

口口口
口口口口
口口口口 |--③-|
口口口口
81
口口口口 |①---|
口口口③ |②-③-|
口①②口 |----|
口口口口
82
口口口③ |①---|
口①②口 |②-③-|
口口口口 |----|
口口口口
83
口口口口 |①---|
口口口③ |②-③-|
口①②口 |----|
口口口口
84
口口口③ |①---|
口①②口 |②-③-|
口口口口 |----|
口口口口
85
口口口口 |①---|
口口口③ |②-③-|
口①②口 |----|
口口口口
86
口口口③ |①---|
口①②口 |②-③-|
口口口口 |----|
口口口口
87
口口口口 |①---|
口③口口 |②---|
口②口口 |③---|
口①口口
88
口①口口 |①---|
③口口口 |②---|
②口口口 |③---|
口口口口
89
口口口 |①---|
口口口 |----|
口口口 |----|
口口口
90
口口口口 |----|
口口口口 |----|
口口口口 |----|
口口口口
91
口口口 |①---|
口②③口 |----|
口口口口 |②-③-|
口口口口
92
口口口口 |----|
口口口口 |----|
口口口口 |----|
口口口口
93
①②口口 |①---|
口口口口 |--②-|
口口口口 |----|
口口口口
94
口口①② |①---|
口口口口 |--②-|
口口口口 |----|
口口口口
95
口口口口 |①---|
①口口口 |--②-|
口②口口 |----|
口口口口
96
口口口③ |①---|
口口①② |②---|
口口口口 |③---|
口口口口
97
①②口口 |①---|
口口口口 |--②-|
口口口口 |----|
口口口口
98
口口①② |①---|
口口口口 |--②-|
口口口口 |----|
口口口口
99
口口口口 |①---|
①口口口 |--②-|
口②口口 |----|
口口口口
100
口口口③ |①---|
口口①② |②---|
口口口口 |③---|
口口口口
101
①②口口 |①---|
口口口口 |--②-|
口口口口 |----|
口口口口
102
口口①② |①---|
口口口口 |--②-|
口口口口 |----|
口口口口
103
口口口口 |①---|
①口口口 |--②-|
口②口口 |----|
口口口口
104
口口口③ |①---|
口口①② |②---|
口口口口 |③---|
口口口口
105
①②口口 |①---|
口口口口 |--②-|
口口口口 |----|
口口口口
106
口口①② |①---|
口口口口 |--②-|
口口口口 |----|
口口口口
107
口口口口 |①---|
①口口口 |--②-|
口②口口 |----|
口口口口
108
口口口③ |①---|
口口①② |②---|
口口口口 |③---|
口口口口
109
口①口口 |①---|
口②口口 |②---|
口③口口 |③---|
口④口口 |④---|
110
口口口口 |----|
口口口口 |----|
口口口口 |----|
口口口口
111
口口 |①---|
口口 |----|
口口 |----|
口口 |----|
112
口口口口 |----|
口口口口 |----|
口口口口 |----|
口口口口 |----|
113
口口口口 |----|
口口口口 |----|
口口口口 |----|
口口口口 |----|
114
口口口口 |----|
口口口口 |----|
口口口口 |----|
口口口口 |----|
115
口口口口 |----|
口口口口 |----|
口口口口 |----|
口口口口 |----|
116
口口 |①---|
口口口口 |----|
口口口口 |----|
口口口口 |----|

不確定度: 0

最終更新:2016年07月27日 15:28