CIRCUS U CRIC
Nanako

EXTREME

Level: 9
BPM: 185
Notes: 662

1
口口口口 |----|
口口口口 |----|
口口口口 |----|
口口口口 |----|
2
|①---|
②口口② |--②-|
口②②口 |----|
口①①口 |③---|
3
口口口 |----|
口口口口 |----|
口口口口 |----|
口口口口 |--①-|
4
口口口口 |①---|
|--②-|
②②②② |----|
①口口① |③---|
5
口口口口 |----|
口口口 |----|
口口口口 |----|
口口口口 |--①-|
6
|①---|
口②②口 |--②-|
②口口② |----|
口①①口 |③---|
7
口口口 |----|
口口口口 |----|
口口口口 |----|
口口口口 |--①-|
8
口口口口 |①---|
|--②-|
②②②② |----|
口①①口 |③---|
9
口口口③ |①-②-|
口④口 |----|
⑤⑥⑦⑧ |③-④-|
口口①② |⑤⑥⑦⑧|
10
①②③④ |①-②-|
口口口口 |③-④-|
口口口口 |----|
口④口口
11
口④口口 |①-②-|
①②③④ |③-④-|
口口口口 |----|
口口口口
12
口口口口 |①-②-|
口口口口 |③-④-|
①②③④ |--⑤-|
⑤④口口
13
口④④口 |①-②-|
③口口① |③-④-|
⑤⑥⑦⑧ |⑤⑥⑦⑧|
口口口②
14
口口口口 |①-②-|
④口口口 |③-④-|
口口口口 |----|
①②③④
15
口②③口 |①-②-|
口④口④ |③-④-|
①口①口 |----|
口口口口
16
口口口口 |①-②-|
口口口口 |③-④-|
⑤④②口 |--⑤-|
①口口③
17
口口口口 |①-②-|
口③①⑥ |③-④-|
口⑤④② |⑤-⑥-|
口口口口
18
口口口口 |①-②-|
口口口口 |③-④-|
④口口口 |----|
①②③④
19
口口口口 |①-②-|
①②③④ |③-④-|
口口口口 |----|
口④口口
20
口口口口 |①-②-|
口口口口 |③-④-|
⑤④②口 |--⑤-|
①口口③
21
⑤⑥⑦⑧ |①-②-|
口③①口 |③-④-|
口口④② |⑤⑥⑦⑧|
口口口口
22
口口口口 |①-②-|
④口口口 |③-④-|
口口口口 |----|
①②③④
23
口②③口 |①-②-|
口④口④ |③-④-|
①口①口 |----|
口口口口
24
口口口口 |①-②-|
口口口口 |③-④-|
⑤④②口 |--⑤-|
①口口③
25
口口口口 |①-②-|
口③①⑥ |③-④-|
口⑤④② |⑤-⑥-|
口口口口
26
口①口③ |①-②-|
④口②口 |③-④-|
口⑧⑦⑤ |⑤-⑥-|
⑥⑦⑧口 |⑦-⑧-|
27
口口口口 |----|
口口口口 |----|
口口口口 |----|
①口口口 |--①-|
28
口口口口 |①---|
口口口口 |②-③-|
⑥④③口 |④---|
⑤口①② |⑤-⑥-|
29
口②口口 |①---|
口口②口 |②---|
口口口①
口口口口

口口口口
口口口口
口口④⑤ |③---|
口③口口 |④-⑤-|
30
口口口口 |①---|
⑥③④口 |②-③-|
②①口⑤ |④---|
口口口口 |⑤-⑥-|
31
口口②口 |①---|
口②口① |②---|
口口口口 |③-④-|
⑥③④⑤ |⑤-⑥-|
32
口口口口 |①-②-|
口④③⑦ |③-④-|
口①口② |--⑤-|
口⑤⑥口 |⑥-⑦-|
33
口口④口 |①-②-|
①③②口 |③-④-|
口⑤⑤口 |----|
口口口口 |--⑤-|
34
口口口口 |①---|
①口口① |--②-|
②④④② |③---|
口③③口 |--④-|
35
口②②口 |①---|
①③③口 |②-③-|
③口口③ |----|
④口口口 |--④-|
36
口口口口 |①---|
口口口口 |②-③-|
⑥④③口 |④---|
⑤口①② |⑤-⑥-|
37
口②口口 |①---|
口口②口 |②---|
口口口①
口口口口

口口口口
口口口口
口口口③ |----|
口口口口 |--③-|
38
口口口口 |①---|
口③④口 |②-③-|
②①口⑤ |④---|
⑥口口口 |⑤-⑥-|
39
③④⑤口 |①---|
口口口口 |②---|
口口②口 |③-④-|
⑥②口① |⑤-⑥-|
40
口口口口 |①-②-|
口口口⑥ |③-④-|
⑤①③口 |--⑤-|
口④口② |--⑥-|
41
③口口口 |--①-|
口②①口 |②-③-|
口⑥⑥口 |④-⑤-|
口④⑤口 |--⑥-|
42
口口口口 |①---|
①口口① |--②-|
②④④② |③---|
口③③口 |--④-|
43
①④口① |①---|
⑤⑥⑦⑧ |②-③-|
⑨口口口 |④-⑤⑥|
②口口③ |⑦⑧⑨-|
44
口口口③ |①-②-|
⑤口口⑥ |③-④-|
口①②③ |----|
口口口④ |⑤-⑥-|
45
②③④② |①-②-|
⑤①①⑥ |----|
口口⑤③ |③-④-|
口口口口 |⑤-⑥-|
46
口 |①---|




口口口口
口口口口 |②-③-|
③⑤口④ |④-⑤-|


口口
口口
口⑥
口口 |⑥-⑦-|
47
口口口口 |----|
②③⑤④ |①---|
口口口口 |②-③-|
口口 |④-⑤-|
48
口口① |①---|
口口口 |--②-|
口②④ |③---|
口③口 |④---|
49
口口口② |①---|
口口①口 |②---|
口口口口
口口口

口口口口
③⑤⑥④
口口口口 |③-④-|
口口口口 |⑤-⑥-|
50
口①口口 |①---|
④口口④ |--②-|
口②③口 |③---|
口口口口 |④-|

口口口
口口口
口口⑤
口口口 |⑤-|
51
口②② |--①-|
口口①口 |--②-|
口口口口 |----|
口口口口 |----|
52
口口口口 |①-②-|
①②③口 |③-④-|
口口口口 |⑤---|
⑤口口④
53
口口①口 |①-②-|
口⑤口① |③-④-|
②③④口 |⑤---|
口口口口
54
口口口① |①-②-|
口口①口 |③-④-|
口口口⑥ |⑤-⑥-|
②③④⑤
55
口④口口 |①-②-|
⑤口③⑤ |③-④-|
①口②口 |⑤---|
口口口口
56
口口口⑤ |①-②-|
口④口口 |③-④-|
口口③口 |⑤---|
①②口⑤
57
口①①口 |①-②-|
口口②口 |③-④-|
⑤③口⑤ |⑤---|
口④④口
58
口④口口 |①-②-|
①②⑤③ |③-④-|
口⑥口口 |⑤-⑥-|
口口口口
59
口口口 |①---|
口口口 |②---|
②口口
口口①

③口口口
口口口口
口口口口 |③-④-|
口口口
60
口口④口 |①-②-|
口③口④ |③-④-|
口口口② |----|
口①口口
61
口④口口 |①-②-|
④口③口 |③-④-|
②口口口 |----|
口口①口
62
口口④口 |①-②-|
口③口口 |③-④-|
口⑤②口 |--⑤-|
口①口口
63
口④口口 |①-②-|
④口口③ |③-④-|
口口口② |----|
口口口①
64
口口④口 |①-②-|
口③口④ |③-④-|
口口②口 |----|
口①口口
65
口②口口 |①-②-|
①口③口 |③-④-|
口④口口 |----|
口口④口
66
口口口口 |①---|
②口口② |--②-|
口口口口 |--③-|
①口口③
67
口口口口 |①---|
口③口口 |②---|
口②口口 |③---|
口①口口
68
口口 |①-②-|
⑤⑥ |--③-|
③④ |④---|
①② |⑤-⑥-|
69
①② |--①-|
口⑤口口 |②---|
口⑥④口 |③-④-|
口口口③ |⑤-⑥-|
70
口口口④ |①-②-|
③口口⑤ |③-④-|
⑥口口② |----|
①口①口 |⑤-⑥-|
71
④口口③ |①-②-|
⑥②口⑤ |----|
⑧口口⑦ |③-④-⑤-|
口口口① |⑥-⑦-⑧-|
72
口⑥口⑥ |①---②-|
口口③口 |--③---|
口⑤②⑤ |④---⑤-|
口④①④ |--⑥---|
73
口口口口 |①-②-|
①②③口 |③-④-|
口口口口 |⑤---|
⑤口口④
74
⑤口①口 |①-②-|
口⑤口口 |③-④-|
②③④口 |⑤---|
口口口口
75
口口口① |①-②-|
口口口⑤ |③-④-|
口口口⑥ |⑤-⑥-|
②③④⑤
76
口④口口 |①-②-|
⑤口③口 |③-④-|
①⑤②口 |⑤---|
口口口口
77
口口口⑤ |①-②-|
口④⑤口 |③-④-|
口口③口 |⑤---|
①②口口
78
口①①口 |①---|
口口口口 |②---|
③③③③ |③---|
③②②③
79
口④口口 |①-②-|
①②⑤③ |③-④-|
口⑥口口 |⑤-⑥-|
口口口口
80
口口口 |①---|
口口口 |②---|
口口口
②口①

口口口口
口口口口
口口口口 |--③-|
口口口
81
口口④口 |①-②-|
口③口④ |③-④-|
口口口② |----|
口①口口
82
口④口口 |①-②-|
④口③口 |③-④-|
②口口口 |----|
口口①口
83
④口④口 |①-②-|
口③口口 |③-④-|
口⑤②口 |--⑤-|
口①口口
84
口④口④ |①-②-|
⑧口⑥③ |③-④-|
口口口② |⑤⑥⑦⑧|
⑤口⑦①
85
④口④口 |①-②-|
口③口口 |③-④-|
口口②口 |----|
口①口口
86
口②口口 |①-②-|
①口③口 |③-④-|
口④口口 |----|
④口口口
87
口口口口 |①-②-|
③口口④ |③-④-|
口口口口 |--⑤-|
⑤①②口
88
口口口口 |①---|
口③口口 |②---|
口②口口 |③---|
口口口①
89
①① |①---|
口口 |----|
口口 |----|
口口
90
口口口口 |①---|
口口①① |----|
口口口口 |----|
口口口口
91
口③ |①---|
口口口口 |②---|
口②②① |③-④-|
④口①④
92
口口口口 |----|
口口口口 |----|
①②③④ |①②③④|
口口口口
93
①②③④ |①-②-|
口①口口 |③-④-|
口口口口 |----|
口口④口
94
口口④口 |①-②-|
①②③④ |③-④-|
口①口口 |----|
口口口口
95
口①口口 |①-②-|
口口口口 |③-④-|
①②③④ |--⑤-|
⑤④口口
96
口④④口 |①-②-|
③口口① |③-④-|
⑤⑥⑦⑧ |⑤⑥⑦⑧|
口口口②
97
口口口口 |①-②-|
④①口口 |③-④-|
口口口口 |----|
①②③④
98
口②③口 |①-②-|
口④口④ |③-④-|
①口①口 |----|
口口口口
99
口口口口 |①-②-|
口口口口 |③-④-|
⑤④②口 |--⑤-|
①口口③
100
口口口口 |①-②-|
口③①⑥ |③-④-|
口⑤④② |⑤-⑥-|
口口口口
101
口①④口 |①-②-|
口口口口 |③-④-|
口口口口 |----|
①②③④
102
口口口口 |①-②-|
①②③④ |③-④-|
口①口口 |----|
口④口口
103
口①口口 |①-②-|
口口口口 |③-④-|
⑤④②口 |--⑤-|
①口口③
104
口口口口 |①-②-|
口③①⑥ |③-④-|
口⑤④② |⑤-⑥-|
口口口口
105
口①口口 |①-②-|
④口口口 |③-④-|
口口口口 |----|
①②③④
106
口②③口 |①-②-|
口④口④ |③-④-|
①口①口 |----|
口口口口
107
口口口口 |①-②-|
口口口口 |③-④-|
⑤④②口 |--⑤-|
①口口③
108
口口口口 |①-②-|
口③①⑥ |③-④-|
口⑤④② |⑤-⑥-|
口口口口
109
③①口③ |①-②-|
④④②口 |③-④-|
⑤⑦⑦⑤ |⑤-⑥-|
⑥⑧⑥⑧ |⑦-⑧-|
110
口口口口 |----|
口口口口 |----|
口口口口 |----|
口口口口
111
|①---|
|----|
|----|
|----|
112
口口口口 |----|
口口口口 |----|
口口口口 |----|
口口口口 |----|
113
口口口口 |----|
口口口口 |----|
口口口口 |----|
口口口口 |----|
114
口口口口 |----|
口口口口 |----|
口口口口 |----|
口口口口 |----|
115
口口口口 |----|
口口口口 |----|
口口口口 |----|
口口口口 |----|
116
|①---|
口口口口 |----|
口口口口 |----|
口口口口 |----|

不確定度: 0

最終更新:2016年07月27日 15:27