Beautiful
Superfly

BASIC

Level: 1
BPM: 145
Notes: 130

1
口口口口 |----|
口口口口 |----|
口口口口 |----|
口口口口 |----|
2
口口口口 |①---|
①②口口 |----|
口口口口 |----|
口口口口 |--②-|
3
口口口口 |----|
口口口口 |----|
口口口口 |----|
口口口口 |----|
4
口口口口 |①---|
口口②① |----|
口口口口 |----|
口口口口 |--②-|
5
口口口口 |----|
口口口口 |----|
口口口口 |----|
口口口口 |----|
6
口口口口 |①---|
①②口口 |----|
口口口口 |----|
口口口口 |--②-|
7
口口口口 |----|
口口口口 |----|
口口口口 |----|
口口口口 |----|
8
口口口口 |①---|
口口②① |----|
口口口口 |----|
口口口口 |--②-|
9
口口口口 |----|
口口口口 |----|
口口口口 |----|
口口口口 |----|
10
口口口口 |①---|
口口口口 |----|
口②口口 |②---|
口①口口 |----|
11
口②口口 |①---|
口①口口 |----|
口口口口 |②---|
口口口口 |----|
12
口口①口 |①---|
口口②口 |----|
口口口口 |②---|
口口口口 |----|
13
口口口口 |①---|
口口口口 |----|
口口①口 |②---|
口口②口 |----|
14
口口口口 |①---|
口口口口 |----|
口②口口 |②---|
口①口口 |----|
15
口②口口 |①---|
口①口口 |----|
口口口口 |②---|
口口口口 |----|
16
口口①口 |①---|
口口②口 |----|
口口口口 |②---|
口口口口 |----|
17
口口口口 |①---|
口口口口 |----|
口口①口 |②---|
口口②口 |----|
18
口口口口 |①---|
口口口口 |----|
口①①口 |----|
口口口口 |----|
19
口口口口 |----|
口口口口 |----|
口口口口 |----|
口口口口 |----|
20
口口口口 |①---|
口口口口 |----|
口①①口 |----|
口口口口 |----|
21
口口口口 |----|
口口口口 |----|
口口口口 |----|
口口口口 |----|
22
口口口口 |①---|
①口口口 |----|
口口口口 |----|
口口口口 |----|
23
口口口口 |①---|
口①口口 |----|
口口口口 |----|
口口口口 |----|
24
口口口口 |①---|
口口①口 |----|
口口口口 |----|
口口口口 |----|
25
口口口口 |①---|
口口口① |----|
口口口口 |----|
口口口口 |----|
26
口口口口 |①---|
口口口口 |----|
口口口① |----|
口口口口 |----|
27
口口口口 |①---|
口口口口 |----|
口口①口 |----|
口口口口 |----|
28
口口口口 |①---|
口口口口 |----|
口①口口 |----|
口口口口 |----|
29
口口口口 |①---|
口口口口 |----|
①口口口 |----|
口口口口 |----|
30
口口口口 |①---|
口口口口 |----|
口②口口 |②---|
口①①口 |----|
31
口②口口 |①---|
口①口口 |----|
口口口口 |②---|
口口口口 |----|
32
口口①口 |①---|
口口②口 |----|
口口口口 |②---|
口口口口 |----|
33
口口口口 |①---|
口口口口 |----|
口口①口 |②---|
口口②口 |----|
34
口口口口 |①---|
口口口口 |----|
口②口口 |②---|
口①口口 |----|
35
口②口口 |①---|
口①口口 |----|
口口口口 |②---|
口口口口 |----|
36
口口①口 |①---|
口口②口 |----|
口口口口 |②---|
口口口口 |----|
37
口口口口 |①---|
口口口口 |----|
口口①口 |②---|
口口②口 |----|
38
口口口口 |①---|
②口口② |----|
①口口① |②---|
口口口口 |----|
39
①②②① |①---|
口口口口 |----|
口口口口 |②---|
口口口口 |----|
40
口口口口 |①---|
口口①口 |----|
口②口口 |②---|
口口口口 |----|
41
口口口口 |①---|
口口口口 |----|
口口口口 |----|
口口①口 |----|
42
口口口口 |①---|
②口口② |----|
①口口① |②---|
口口口口 |----|
43
①②②① |①---|
口口口口 |----|
口口口口 |②---|
口口口口 |----|
44
口口口口 |①---|
口口①口 |----|
口②口口 |②---|
口口口口 |----|
45
口口口口 |①---|
口口口口 |----|
口口口口 |②---|
口②①口 |----|
46
口口口口 |①---|
口口口口 |----|
口①①口 |----|
口口口口 |----|
47
口口口口 |①---|
①①口口 |----|
口②口口 |②---|
口口口口 |----|
48
口口口口 |①---|
口口口口 |----|
口口口口 |②---|
口①②口 |----|
49
口口口口 |①---|
口口①① |----|
口口②口 |②---|
口口口口 |----|
50
口口口口 |①---|
口口口口 |----|
口口口口 |②---|
口②①口 |----|
51
口口口口 |①---|
②③口口 |----|
口①①口 |②---|
口口口口 |③---|
52
口口口口 |①---|
口口①口 |----|
口口口口
口口口口

口口口口
口口③②
口口口口 |②---|
口口口口 |③---|
53
口口口口 |①---|
口①口口 |----|
口②②口 |②---|
口口口口 |----|
54
口口口口 |①---|
口口口口 |----|
口②②口 |②---|
口①①口 |----|
55
口口口口 |①---|
①①口口 |----|
口②口口 |②---|
口口口口 |----|
56
口口口口 |①---|
口口口口 |----|
口口口口 |②---|
口①②口 |----|
57
口口口口 |①---|
口口①① |----|
口口②口 |②---|
口口口口 |----|
58
口口口口 |①---|
口口口口 |----|
口口口口 |②---|
口②①口 |----|
59
口口口口 |①---|
②③口口 |----|
口①①口 |②---|
口口口口 |③---|
60
口口口口 |①---|
口口①口 |----|
口口口口
口口口口

口口口口
口口③②
口口口口 |②---|
口口口口 |③---|
61
口口口口 |①---|
口①口口 |----|
口②②口 |②---|
口口口口 |----|
62
口口口口 |①---|
口口口口 |----|
口②②口 |②---|
口①①口 |----|
63
口口口口 |①---|
口①①口 |----|
口口口口 |----|
口口口口 |----|
64
口口口口 |----|
口口口口 |----|
口口口口 |----|
口口口口 |----|
65
口口口口 |①---|
口口口口 |----|
口①①口 |----|
口口口口 |----|

不確定度: 0

最終更新:2016年07月27日 15:27