Beautiful
Superfly

ADVANCED

Level: 5
BPM: 145
Notes: 337

1
口口口口 |----|
口口口口 |----|
口口口口 |----|
口口口口 |----|
2
口口口口 |①---|
③④口口 |②---|
口口②① |--③-|
口口口口 |--④-|
3
口口口口 |--①-|
口口①② |--②-|
③口口口 |--③-|
口⑤④口 |④-⑤-|
4
口口口口 |----|
②③口口 |①---|
口口①口 |--②-|
口口口口 |--③-|
5
口口口口 |--①-|
口口①② |--②-|
③口口口 |--③-|
口⑤④口 |④-⑤-|
6
口口口口 |----|
②③口口 |①---|
口口①口 |--②-|
口口口口 |--③-|
7
口口口口 |--①-|
口口①② |--②-|
③口口口 |--③-|
口⑤④口 |④-⑤-|
8
口口口口 |----|
②③口口 |①---|
口口①口 |--②-|
口口口口 |--③-|
9
口口口口 |--①-|
口口①② |--②-|
③口口口 |--③-|
口⑤④口 |④-⑤-|
10
①①①① |①---|
口口口口 |②---|
口口③③ |③---|
口口④② |④---|
11
口口口口 |①---|
③③口口 |②---|
①①口口 |③---|
④②口口 |④---|
12
口口①① |①---|
口口③③ |②---|
口口口口 |③---|
口口④② |④---|
13
①①口口 |①---|
③③口口 |②---|
口口口口 |③---|
④②口口 |④---|
14
口口①① |①---|
口口口口 |②---|
口口③③ |③---|
口口④② |④---|
15
①①口口 |①---|
口口口口 |②---|
③③口口 |③---|
④②口口 |④---|
16
口口口口 |①---|
①①①① |----|
口口口口 |----|
口口口口 |----|
17
口口口口 |----|
口口口口 |----|
口口口口 |----|
口口口口 |----|
18
口口口口 |①-②-|
口③④口 |③-④-|
口①②口 |----|
口口口口 |----|
19
口口口口 |----|
口口口口 |----|
口口口口 |----|
口口口口 |----|
20
口口口口 |①-②-|
口④③口 |③-④-|
口②①口 |----|
口口口口 |----|
21
口①口口 |----|
口②口口 |----|
口口③口 |--①-|
口口口口 |②-③-|
22
口口口口 |①---|
口⑤③口 |--②-|
口②④口 |③---|
口口①口 |④-⑤-|
23
①口②① |--①-|
口口③口 |----|
口④口口 |--②-|
口口口口 |③-④-|
24
口口口口 |①---|
口③⑤口 |--②-|
口④②口 |③---|
口①口口 |④-⑤-|
25
①③口① |--①-|
②④口② |②---|
口口⑤口 |--③-|
口口口口 |④-⑤-|
26
口口口口 |①---|
口⑤③口 |--②-|
口②④口 |③---|
口口①口 |④-⑤-|
27
①口②① |--①-|
口口③口 |----|
口④口口 |--②-|
口口口口 |③-④-|
28
口口口口 |①---|
⑤口口③ |②-③-|
④口口② |--④-|
口①口口 |⑤---|
29
口口口口 |----|
口口①口 |----|
口②口口 |--①-|
口口③口 |②-③-|
30
⑤⑤③③ |①---|
口口口口 |--②-|
①②④① |③---|
口口口口 |④-⑤-|
31
口口口口 |--①-|
口①①口 |----|
口④口口 |--②-|
口②③口 |③-④-|
32
口⑥⑥口 |①---|
②③④⑤ |--②-|
口口①口 |③-④-|
口口口口 |⑤-⑥-|
33
口口口口 |--①-|
口口口口 |②---|
口②①口
口口口口

口口口口
口③口口
口口④口 |--③-|
口⑤口口 |④-⑤-|
34
③③⑤⑤ |①---|
口口口口 |--②-|
①④②① |③---|
口口口口 |④-⑤-|
35
口口口口 |--①-|
口①①口 |----|
口④口口 |--②-|
口②③口 |③-④-|
36
口口口口 |①---|
②③⑤④ |②-③-|
口口①口 |--④-|
口口口口 |⑤---|
37
口口口口 |----|
口口口口 |----|
口口口口 |----|
口①②口 |①-②-|
38
③口口③ |①---|
①④④① |②-③-|
口②②口 |--④-|
口⑤⑤口 |--⑤-|
39
③④口口 |----|
口②①口 |①-②-|
口口口口 |----|
口口口口 |③-④-|
40
口口①口 |①---|
口口③② |--②-|
④⑤口口 |③---|
口口口口 |④-⑤-|
41
口口口口 |①-②-|
口口口口 |③---|
口口①② |----|
③④⑤口 |④-⑤-|
42
③口口③ |①---|
①④④① |②-③-|
口②②口 |--④-|
口⑤⑤口 |--⑤-|
43
④口口③ |----|
口②①⑤ |①-②-|
口口口口 |--③-|
口口口口 |④-⑤-|
44
口口口口 |①-②-|
①⑥口口 |③---|
③④⑤② |--④-|
口口口口 |⑤-⑥-|
45
③③②② |①---|
口口①口 |②-③-|
口口口口 |----|
口口口口 |----|
46
口①①口 |----|
口口口口 |----|
口口口口 |----|
口口口口 |①---|
47
④口口口 |①---|
④口口口 |--②-|
③口口② |③---|
③①①② |--④-|
48
口口口① |①---|
口口②① |--②-|
口口②口
口口口口

口口④④
口③口口
口③口口 |③---|
口口口口 |--④-|
49
①①口口 |①---|
口口口口 |--②-|
②②③③ |③---|
口④④口 |--④-|
50
①口口① |①---|
口②②口 |②---|
③口口③ |③---|
口④④口 |④---|
51
②口口口 |①---|
口①①口 |--②-|
口①①口
口口口口

口口口口
③口口口
④口⑥口 |③-④-|
⑤口口口 |⑤-⑥-|
52
口口口② |①---|
口①口③ |--②-|
口⑥口④ |③-④-|
口口口⑤ |⑤-⑥-|
53
口口口④ |①---|
口③①口 |--②-|
口口②口 |③---|
口口口口 |④---|
54
①口口口 |①---|
③口口② |②---|
口④④口 |③---|
口口口口 |--④-|
55
④口口口 |①---|
④口口口 |--②-|
③口口② |③---|
③①①② |--④-|
56
口口口① |①---|
口口②① |--②-|
口口②口
口口口口

口口④④
口③口口
口③口口 |③---|
口口口口 |--④-|
57
①①口口 |①---|
口口口口 |--②-|
②②③③ |③---|
口④④口 |--④-|
58
①口口① |①---|
口②②口 |②---|
③口口③ |③---|
口④④口 |④---|
59
②口口口 |①---|
口①①口 |--②-|
口①①口
口口口口

口口口口
③口口口
④口⑥口 |③-④-|
⑤口口口 |⑤-⑥-|
60
口口口② |①---|
口①口③ |--②-|
口⑥口④ |③-④-|
口口口⑤ |⑤-⑥-|
61
口口口④ |①---|
口③①口 |--②-|
口口②口 |③---|
口口口口 |④---|
62
①口口口 |①---|
③口口② |②---|
口口口④ |③---|
口口口口 |④---|
63
口口口口 |①---|
口口口口 |----|
①口口口 |----|
口口口口 |----|
64
口口口口 |----|
口口口口 |----|
口口口口 |----|
口口口口 |----|
65
口口口口 |①---|
口口口口 |----|
口口口口 |----|
口①①口 |----|

不確定度: 0

最終更新:2016年07月27日 15:26