Beautiful
Superfly

EXTREME

Level: 7
BPM: 145
Notes: 511

1
口口口口 |----|
口口口口 |----|
口口口口 |----|
口口口口 |----|
2
口③口口 |①---|
口口④口 |②---|
口口口口 |--③-|
①口口② |--④-|
3
口口口口 |--①-|
口⑥⑤④ |--②-|
口①口口 |--③-|
口③②口 |④⑤⑥-|
4
口口③口 |①---|
口④口口 |②---|
口口口口 |--③-|
②口口① |--④-|
5
口口口口 |--①-|
④⑤⑥口 |--②-|
口口①口 |--③-|
口②③口 |④⑤⑥-|
6
口③口口 |①---|
口口④口 |②---|
口口口口 |--③-|
①口口② |--④-|
7
口口口口 |--①-|
口⑥⑤④ |--②-|
口①口口 |--③-|
口③②口 |④⑤⑥-|
8
口口③口 |①---|
口④口口 |②---|
口口口口 |--③-|
②口口① |--④-|
9
口口口口 |--①-|
④⑤⑥口 |--②-|
口口①口 |--③-|
口②③口 |④⑤⑥-|
10
口①①① |①---|
③③③口 |②---|
口口口口 |③---|
②口④口 |④---|
11
口口口口 |①---|
口②口口 |②---|
口①①①
口口口口

口口口口
口口口口
口口口④ |③---|
③③③口 |④---|
12
④①①① |①---|
③③③口 |②---|
口②口口 |③---|
口口口口 |④---|
13
口口口口 |①---|
④口口② |②---|
口①①① |③---|
③③③口 |④---|
14
口①①① |①---|
③③③口 |②---|
口口口口 |③---|
口④口② |④---|
15
口口②口 |①---|
口口口口 |②---|
口①①①
口口口口

口口口口
口口口口
口口口④ |③---|
③③③口 |④---|
16
口①①① |①---|
⑤⑤⑤⑤ |②---|
口②③④ |③---|
口口口口 |④-⑤-|
17
②③④口 |①---|
口口口口 |②---|
口口口口 |③---|
①①①① |④---|
18
⑤⑥④口 |①-②-|
⑥⑤口③ |③-④-|
口口②口 |⑤---|
口口口① |--⑥-|
19
②口①③ |----|
口口口① |--①-|
口口口口 |----|
口口口口 |②-③-|
20
口④⑤⑥ |①-②-|
③口⑥⑤ |③-④-|
口②口口 |⑤---|
①口口口 |--⑥-|
21
②①②口 |----|
①③口③ |--①-|
④口④口 |--②-|
口口口口 |③-④-|
22
口③口⑤ |①---|
口③口⑤ |--②-|
口口口口 |③---|
②①④① |④-⑤-|
23
口口①口 |--①-|
口口①口 |----|
口口口口
口口口口

④口④口
口③口③
②口②口 |--②-|
口口口口 |③-④-|
24
⑤⑤③③ |①---|
口口口口 |--②-|
④口口② |③---|
口①①口 |④-⑤-|
25
口口口口 |--①-|
口①①口 |②---|
口口口口
口②②口

③口③口
口④口④
⑤口⑤口 |--③-|
口口口口 |④-⑤-|
26
口③口⑥ |①---|
口③④⑥ |--②-|
口⑤口口 |③--④|
②①口① |⑤-⑥-|
27
①口口口 |--①-|
①口口口 |----|
口口口口
口口口口

④口④口
口③口③
②口②口 |--②-|
口口口口 |③-④-|
28
⑤口口② |①---|
口④③口 |②-③-|
口口口口 |--④-|
口①①口 |⑤---|
29
口口③口 |----|
①口①③ |----|
口②口② |--①-|
口口口口 |②-③-|
30
口④口⑥ |①---|
口④口⑥ |②-③-|
①口②口 |④---|
③①⑤口 |⑤-⑥-|
31
口⑥①口 |--①-|
⑥⑤①⑤ |②---|
④②④口 |③-④-|
口口③口 |⑤-⑥-|
32
口口口① |①---|
口口①口 |②-③-|
口口口③
口②口口

⑦口口⑦
口口口口
⑥⑤④口 |④-⑤-|
口口口口 |⑥-⑦-|
33
口口口口 |--①-|
口①①口 |②---|
口口口口
口②②口

④口④口
口⑤口⑤
⑥③⑥口 |③-④-|
口口口口 |⑤-⑥-|
34
口④口⑥ |①---|
口④口⑥ |②-③-|
口②口口 |④---|
③①⑤① |⑤-⑥-|
35
口⑥①口 |--①-|
⑥⑤①⑤ |②---|
④②④口 |③-④-|
口口③口 |⑤-⑥-|
36
④口③① |①---|
口⑤①③ |②-③-|
口口⑤口 |--④-|
口②口④ |⑤---|
37
口口④④ |①---|
⑤⑤口口 |②---|
口口口口 |③---|
①②③口 |④-⑤-|
38
②②口口 |①---|
口口口口 |②-③-|
口口①①
口口③③

口口口口
口⑤④口
口④⑤口 |--④-|
口口口口 |--⑤-|
39
②口③① |----|
口口④口 |①-②-|
口口口口 |----|
口口口口 |③-④-|
40
口口④口 |①---|
口③口⑤ |--②-|
口口口口 |③---|
口②①口 |④-⑤-|
41
口口口口 |①-②-|
口②口口 |③---|
③口①口
口口口口

口口④④
⑤⑤口口
口口口口 |----|
口口口口 |④-⑤-|
42
②②口口 |①---|
口口口口 |②-③-|
口口①①
口口③③

口口口口
口⑤④口
口④⑤口 |--④-|
口口口口 |--⑤-|
43
②口⑤① |----|
口口口口 |①-②-|
口口④口 |--③-|
口口③口 |④-⑤-|
44
口①口口 |①-②-|
口②口⑥ |③---|
⑤口口口 |--④-|
口③口④ |⑤-⑥-|
45
①①②口 |①---|
口口③口 |②-③-|
口②口口 |----|
口③口口 |----|
46
⑦⑦⑦⑦ |①-②-|
⑥口口⑤ |③-④-|
④口口③ |⑤-⑥-|
②口口① |⑦---|
47
口口口口 |①---|
③⑥③⑥ |②-③-|
口⑤②口 |④---|
④①①④ |⑤-⑥-|
48
③口③口 |①---|
口口②口 |②-③-|
口口口口
口①①口

口口口口
口口⑥⑥
口④④口 |④---|
口口口⑤ |⑤-⑥-|
49
③口口口 |①---|
①①口口 |②-③-|
③口口口
口②②口

口口口④
口⑥口口
口口⑤④ |④---|
口口口口 |⑤-⑥-|
50
③②①④ |①---|
②④③① |②---|
①③④② |③---|
④①②③ |④---|
51
口口口② |①---|
口口口② |--②-|
①口口①
口①①口

⑤④③口
口④口口
⑤口③⑥ |③-④-|
口口口⑥ |⑤-⑥-|
52
②口口口 |①---|
②口口口 |--②-|
口口口口
①①口口

口③④⑤
口口④口
⑥③口⑤ |③-④-|
⑥口口口 |⑤-⑥-|
53
口口口口 |①---|
口③口口 |--②-|
口口②口 |③---|
④④①① |④---|
54
①①③③ |①---|
口口口口 |②---|
④口口④ |③---|
口⑤②② |④-⑤-|
55
口口口口 |①---|
①③①③ |②-③-|
口口②口
口口口口

口④口④
⑥口⑥口
口口口口 |④---|
口⑤口口 |⑤-⑥-|
56
口口口口 |①---|
口③口③ |②-③-|
口①口①
口口②口

⑥⑥口口
口口口口
④口④⑤ |④---|
口口口口 |⑤-⑥-|
57
口口①① |①---|
④⑥口③ |②-③-|
口口⑤口 |④---|
④②口③ |⑤-⑥-|
58
③②①④ |①---|
②④③① |②---|
①③④② |③---|
④①②③ |④---|
59
口口口② |①---|
口口口② |--②-|
①口口①
口①①口

⑤④③口
口④口口
⑤口③⑥ |③-④-|
口口口⑥ |⑤-⑥-|
60
②口口口 |①---|
②口口口 |--②-|
口口口口
①①口口

口③④⑤
口口④口
⑥③口⑤ |③-④-|
⑥口口口 |⑤-⑥-|
61
口口口口 |①---|
口③口口 |--②-|
口口②口 |③---|
④④①① |④---|
62
①①③③ |①---|
口口口口 |②---|
④口口④ |③---|
口口②② |④---|
63
口口口口 |①---|
①口口① |----|
口①①口 |----|
口口口口 |----|
64
口口口口 |----|
口口口口 |----|
口①口口 |----|
口口口口 |①---|
65
口口口口 |①---|
口口口口 |----|
口口①口 |----|
口口口口 |----|

不確定度: 0

最終更新:2016年07月27日 15:26