アガット
Bazole

ADVANCED

Level: 8
BPM: 200
Notes: 561

1
口口口口 |----|
口口口口 |----|
口口口口 |----|
口口口口 |----|
2
口 |----|
口③口口 |----|
口口②口 |①-②-|
口①口口 |③-④-|
3
③⑤口口 |--①-|
④口口口 |②---|
①口口口 |③-④-|
②口口口 |--⑤-|
4
口口口 |①-②-|
口①口口 |③-④-|
②口口口
③口口口


口口⑦口
口⑥口口 |⑤-⑥-|
口口⑤口 |⑦-⑧-|
5
口口⑤③ |--①-|
口口口④ |②---|
口口口① |③-④-|
口口口② |--⑤-|
6
⑧口 |①-②-|
口⑦①口 |③-④-|
口口⑥② |⑤-⑥-|
口⑤口③ |⑦-⑧-|
7
口口口口 |--①-|
口口②口 |②---|
口①口口 |③---|


口口口口
⑤口口口
④口口口
口口口 |④-⑤-|
8
|--①-|
口口口① |②---|
口口口口
口口口口

口③口
口④口口
口口⑤口 |③-④-|
口口⑥口 |⑤-⑥-|
9
口 |--①-|
⑥ |②-③-|
④ |④-⑤-|
② |⑥-⑦-|
10
口口口口 |----|
口口口口 |----|
口口口口 |----|
口口口口 |----|
11
口 |----|
口口口口 |----|
口口口口 |----|
口口口口 |--①-|
12
口口口口 |①---|
①⑤口② |②---|
①口④② |--③-|
口③口口 |④-⑤-|
13
②⑤口② |--①-|
口口④口 |--②-|
口③口口 |③-④-|
①口口① |⑤---|
14
口口口口 |①---|
①⑤口② |②---|
①口④② |--③-|
口③口口 |④-⑤-|
15
②⑤口② |--①-|
口口④口 |--②-|
口③口口 |③-④-|
①口口① |⑤---|
16
口口口口 |①---|
①⑤口② |②---|
①口④② |--③-|
口③口口 |④-⑤-|
17
②⑤口② |--①-|
口口④口 |--②-|
口③口口 |③-④-|
①口口① |⑤---|
18
口口口口 |①---|
①⑤口② |②---|
①口④② |--③-|
口③口口 |④-⑤-|
19
②⑤口② |--①-|
口口④口 |--②-|
口③口口 |③-④-|
①口口① |⑤---|
20
口口口 |①---|
①口口
①口口
口口口

口口口口
口⑤口② |②---|
口口④② |--③-|
口③口口 |④-⑤-|
21
口⑤②口 |--①-|
口口④口 |--②-|
口③口口 |③-④-|
①口口口 |⑤---|
22
口口口口 |①---|
①⑤口② |②---|
①口④② |--③-|
口③口口 |④-⑤-|
23
口⑤②口 |--①-|
口口④口 |--②-|
口③⑥口 |③-④-|
①口口 |⑤-⑥-|
24
口口口 |①---|
①口口
①口口
口口口

口口口口
口⑤口② |②---|
口口④② |--③-|
口③口口 |④-⑤-|
25
口⑤② |--①-|
口口④口 |--②-|
口③口口 |③-④-|
①口口口 |⑤-⑥-|
26
口口口 |①---|
①口口
①口口
口口口

口口口口
口⑤口② |②---|
口口④② |--③-|
口③口口 |④-⑤-|
27
口口口口 |①---|
口口口口 |----|
口口口口 |----|
口口口 |----|
28
口口口④ |①-②-|
①②③⑦ |③-④-|
口⑤⑥口 |--⑤-|
口口口口 |⑥-⑦-|
29
④⑤⑥⑦ |--①-|
口口口口 |②-③-|
口口口③ |④-⑤-|
口①②口 |⑥-⑦-|
30
口口口口 |①-②-|
口口口④ |③-④-|
①②③⑦ |--⑤-|
口⑤⑥口 |⑥-⑦-|
31
④口口③ |--①-|
口①②⑤ |②-③-|
⑥口口口 |④-⑤-|
口口口口 |⑥---|
32
口口口口 |①-②-|
口口口⑦ |③-④-|
口⑤⑥④ |--⑤-|
①②③口 |⑥-⑦-|
33
口口口③ |--①-|
口①②口 |②-③-|
口口口口 |④-⑤-|
④⑤⑥⑦ |⑥-⑦-|
34
口口口⑦ |①-②-|
口⑤⑥④ |③-④-|
①②③口 |--⑤-|
口口口口 |⑥-⑦-|
35
④口口口 |--①-|
⑥口口⑤ |②-③-|
口口②⑦ |④-⑤-|
口①口③ |⑥-⑦-|
36
口口口口 |①-②-|
口⑤⑥口 |③-④-|
①②③⑦ |--⑤-|
口口口④ |⑥-⑦-|
37
口①②口 |--①-|
口口口③ |②-③-|
口口口口 |④-⑤-|
④⑤⑥⑦ |⑥-⑦-|
38
①②③口 |①-②-|
口⑤⑥④ |③-④-|
口口口⑦ |--⑤-|
口口口口 |⑥-⑦-|
39
⑥口口⑤ |--①-|
口口口口 |②-③-|
口①②口 |④-⑤-|
④口口③ |⑥---|
40
口口口口 |①-②-|
①②③口 |③-④-|
①⑤⑥④ |--⑤-|
口口口⑦ |⑥-⑦-|
41
口①②口 |--①-|
口口口③ |②-③-|
④⑤⑥⑦ |④-⑤-|
口口口口 |⑥-⑦-|
42
①口口④ |①-②-|
①②③⑧ |③-④-|
⑤⑥⑦口 |⑤-⑥-|
⑤口口口 |⑦-⑧-|
43
①②③④ |①-②-|
①口口⑧ |③-④-|
⑦口口口 |⑤-⑥-|
⑤口口⑥ |⑦-⑧-|
44
|①---|
口口口口 |----|
口口口口
口口口口

②③口
口口口口
口口口口 |----|
口口口口 |--②③|
45
口口口① |①--②|
口口③口 |--③-|
口④⑤口 |④-⑤-|
口⑥⑦② |⑥-⑦-|
46
④口口口 |①-②-|
口⑤口③ |③-④-|
口口⑥② |--⑤-|
①⑦口口 |⑥-⑦-|
47
⑥口口口 |--①-|
口口⑤③ |②-③-|
口口口② |④--⑤|
④口口① |--⑥-|
48
口口④口 |①-②-|
口③⑦口 |③-④-|
口⑥②口 |--⑤-|
口①⑤口 |⑥-⑦-|
49
口①⑤口 |①---|
口④口口 |②-③-|
口口③口 |④-⑤-|
口②⑥口 |--⑥-|
50
口口 |①-②-|
口口②口 |③---|
口①⑤④ |④---|
口口⑤④ |⑤---|
51
②① |①-②-|
口③④① |③-④-|
口⑤⑥口 |⑤-⑥-|
口⑦⑧口 |⑦-⑧-|
52
④口口口 |①-②-|
口⑦口③ |③-④-|
②口⑥口 |--⑤-|
口⑤口① |⑥-⑦-|
53
口⑦口② |①--②|
口口⑥口 |--③-|
口⑤口口 |④-⑤-|
③口④① |⑥-⑦-|
54
口口④口 |①-②-|
口③ |③-④-|
口⑥②口 |--⑤-|
口①⑤口 |⑥-⑦-|
55
①口口口 |--①-|
③②口口 |②-③-|
④⑦口口 |④-⑤-|
⑤⑥口口 |⑥-⑦-|
56
口①①口 |①---|
口口
口口口口
口口口口


口口口口 |--②-|
口口口口
口口口口

口口口

口口口口 |③---|
口口口口 |--④-|
57
口口口⑤ |①---|
口口口 |②-③-|
②③④口 |④--⑤|
口口口⑥ |--⑥-|
58
⑥②②⑥ |①-②-|
口④④口 |--③-|
口③③口 |④---|
⑤①①⑤ |⑤-⑥-|
59
口①①口 |①--②|
②⑥口② |--③-|
③口⑤③ |--④-|
口④口口 |⑤-⑥-|
60
①口口② |--①-|
③⑦口④ |②-③-|
口口⑥口 |④-⑤-|
口⑤口口 |⑥-⑦-|
61
口③口⑦ |①-②-|
⑥口②口 |③---|
口①口⑤ |④-⑤-|
④口口口 |⑥-⑦-|
62
①口口口 |--①-|
② |②-③-|
③口口口 |④-⑤-|
口口口④

口口口口
口⑥口
口口口口
口口口口 |--⑥-|
63
⑥⑥口口 |--①-|
口③⑤⑤ |②-③-|
④④②口 |--④-|
口①口口 |⑤-⑥-|
64
口口口④ |--①-|
③口⑥⑥ |②-③-|
⑤口口② |④-⑤-|
①口⑦⑦ |⑥-⑦-|
65
口⑥口口 |--①-|
口③⑤口 |②-③-|
口④②口 |--④-|
口①口口 |⑤-⑥-|
66
①口口② |--①-|
③口口④ |②-③-|
⑤口口⑥ |④-⑤-|
⑦口口口 |⑥-⑦-|
67
口口②② |--①-|
口⑤口口 |②---|
口口④口 |--③-|
口③①① |④-⑤-|
68
①口口② |--①-|
③⑦口④ |②-③-|
口口⑥口 |④-⑤-|
口⑤口口 |⑥-⑦-|
69
口③口⑦ |①-②-|
⑥口②口 |③---|
口①口⑤ |④-⑤-|
④口口口 |⑥-⑦-|
70
①口口口 |--①-|
② |②-③-|
③口口口 |④-⑤-|
口口口④

口口口口
口⑥口
口口口口
口口口口 |--⑥-|
71
⑤⑤口口 |--①-|
口口④④ |②---|
③③口② |--③-|
①口口口 |④-⑤-|
72
⑥⑥口口 |--①-|
③口⑤⑤ |②-③-|
④④口② |--④-|
①口口口 |⑤-⑥-|
73
口口口口 |--①-|
③③口口 |②-③-|
⑤④②② |--④-|
①①④⑤ |--⑤-|
74
口⑥口口 |--①-|
③口⑤口 |②-③-|
口④口② |--④-|
①口口口 |⑤-⑥-|
75
④⑥口口 |--①-|
③③口⑤ |②-③-|
④⑥②② |④--⑤|
①①口⑤ |--⑥-|
76
口口口口 |①---|
口 |----|
口口口口 |----|
口 |----|
77
③③口口 |----|
②②口口 |----|
①①口口 |①--②|
口口口口 |--③-|
78
口口口口 |----|
口口口口 |----|
口口口口 |----|
口口口口 |----|
79
口口口口 |----|
③③口 |----|
②②口口 |①--②|
①①口 |--③-|
80
口口口口 |①---|
|----|
口口口口 |----|
|----|
81
③③口口 |----|
②②口口 |----|
①①口口 |①--②|
口口口口 |--③-|
82
|①---|
口口口 |----|
|----|
口口口 |----|
83
口口口 |----|
②②②口 |①---|
③③③ |②---|
口口口口 |③---|
84
⑤①①⑤ |①---|
④口口④ |②---|
③口口③ |--③-|
口②②口 |④-⑤-|

不確定度: 0

最終更新:2016年04月11日 03:11