Too Late Snow [2]
movies (moimoi × Xceon × Dai.)

BASIC

Level: 4
BPM: 138
Notes: 355

1
①口口口 |----|
②口口口 |----|
口口口口 |----|
口口口口 |①-②-|
2
口口口口 |①---|
④口②③ |--②-|
①口口口 |③---|
口口口口 |④---|
3
口口①口 |①-②-|
口③②口 |③-④-|
口④口口
口口口口

口口口口
口口⑦口
口口⑥口 |⑤---|
口⑤口口 |⑥-⑦-|
4
口 |①---|
口口口口
口口口口
口口口口

④口
口③口口 |②-③-|
口⑤⑤口 |④---|
口口口口 |⑤---|
5
口口口口 |①---|
③④⑤③ |②---|
②口口② |③---|
①口口① |④-⑤-|
6
口口口口 |①---|
口②③口 |--②-|
口口①口 |③---|
口④口口 |④---|
7
口口口口 |①-②-|
②④⑤③ |③-④-|
①口口口 |⑤---|
⑥口口⑦ |⑥-⑦-|
8
口口口口 |①---|
口②③口 |--②-|
①口口口 |③---|
口④口口 |④---|
9
①口口① |①---|
②口口② |②---|
口口口口 |③---|
|----|
10
口口口口 |----|
口口口口 |----|
口口口口 |----|
口口口口 |----|
11
口口口口 |①---|
口口口口 |----|
口口口口 |----|
口 |----|
12
口口口口 |----|
口口口口 |----|
口口口口 |----|
口口口口 |----|
13
口口口口 |----|
口②①口 |----|
口口口口 |----|
口口口口 |①-②-|
14
口口口 |①---|
口口口
口口口口
口口口口

口口③口
口④口 |②-③-|
口口口口 |④---|
口⑤⑤口 |⑤---|
15
口①口口 |①-②-|
③口口② |③-④-|
口口口④
口口口口

口⑥口口
口⑦口口
⑤口口口 |⑤---|
口口口口 |⑥-⑦-|
16
口口口口 |①---|
口口口口
口口口口


口口口口
口③③口 |--②-|
口④④口 |③---|
口口 |④---|
17
③口口③ |①---|
②口口② |②---|
①④⑤① |③---|
口口口口 |④-⑤-|
18
口口口口 |①---|
口口口
口口口
口口口口

口⑤⑤口
口③④口 |②-③-|
口口口 |④---|
口口口口 |⑤---|
19
口口口口 |①-②-|
①②口口 |③-④-|
口③④口
口口口口

口⑥口口
口⑦口口
口口口⑤ |⑤---|
口口口口 |⑥-⑦-|
20
口口口口 |①---|
口口口口
口口
口口

口⑤⑤口
口口③口 |②-③-|
④口 |④---|
口口口口 |⑤---|
21
|①---|
②口口② |②---|
①口口① |③---|
口口口口 |----|
22
口 |----|
口口口口 |----|
口口口口 |①---|
口口口口 |----|
23
口口口 |----|
口口口 |①---|
口口口
口口口

口口
口口
口口 |②---|
口口

口口
口口
口口
口 |③---|
24
口口口 |①---|
口口口
口口口
口口

口口口口
③口⑤⑦ |②-③-|
口④口⑥ |④-⑤-|
口口口 |⑥-⑦-|
25
口口口口 |①---|
口口口口
口口
口口

口口口口
口④口口 |②-③-|
③口口 |④---|
口⑤⑤口 |⑤---|
26
|①---|
口口口口 |----|
口口口口
口口口口


口口口口
口口口口 |----|
口口口口 |②---|
27
口口口口 |----|
①口口口 |①---|
口②③口 |②---|
口口口口 |③---|
28
口口口口 |①---|

口口口口
口口口口

口口口口
口口口 |②-③-|
口口口口
口口口③

口口口口
⑥口口⑦
④口口⑤ |④-⑤-|
口口口口 |⑥-⑦-|
29
口 |①---|

口口口口
口口口口


口口口口 |②-③-|
③口口口
口口口口


口口⑦口
口④⑤⑥ |④-⑤-|
口口口口 |⑥-⑦⑧|
30
口口口 |----|
口口口口 |----|
口口口口 |----|
口口口口 |①---|
31
口口口口 |①---|

口口口口
口口口口

口③⑥口
口⑤口 |②-③-|
口口④口 |④--⑤|
口口口口 |--⑥-|
32
口口口口 |①---|
口口口口
口口口口


口口⑥口
口⑤口口 |②-③-|
口③④口 |④--⑤|
口口口 |--⑥-|
33
口口口口 |①---|
口口口口
口口口口


口口⑥口
口⑤口口 |②-③-|
口③④口 |④--⑤|
口口口 |--⑥-|
34
口口口 |①---|
口口口 |----|
口口口
口口口

口口口
口口口口
口口口口 |----|
口口口口 |②---|
35
口口口口 |①---|
口口口口
口口口口


口口⑥口
口⑤口口 |②-③-|
口③④口 |④--⑤|
口口口 |--⑥-|
36
口口口口 |①---|
口口口口
口口口口


口口④口
口⑤口口 |②-③-|
口③⑥口 |④--⑤|
口口口 |--⑥-|
37
口口口口 |①--②|
口口③口 |--③-|
口②口口
口口①口

口口口口
口⑤口口
口口④口 |④--⑤|
口口⑥口 |--⑥-|
38
口口 |①---|
口口 |----|
口口 |----|
口口 |----|
39
口口 |①---|
口③②口 |----|
口口口口 |----|
口口口口 |②-③-|
40
口口口 |①---|
口口口
口口口口
口口口口

口口③口
口④口 |②-③-|
口口口口 |④---|
口⑤⑤口 |⑤---|
41
口①口口 |①-②-|
③口口② |③-④-|
口口口④
口口口口

口⑥口口
口⑦口口
⑤口口口 |⑤---|
口口口口 |⑥-⑦-|
42
口口口口 |①---|
口口口口
口口口口


口口口口
口③③口 |--②-|
口④④口 |③---|
口口 |④---|
43
③口口③ |①---|
②口口② |②---|
①④⑤① |③---|
口口口口 |④-⑤-|
44
口口口口 |①---|
口口口口
口口口
口口口

口⑤⑤口
口③④口 |②-③-|
口口口 |④---|
口口口口 |⑤---|
45
口口口口 |①-②-|
①②口口 |③-④-|
口③④口
口口口口

口⑥口口
口⑦口口
口口口⑤ |⑤---|
口口口口 |⑥-⑦-|
46
口口口口 |①---|
口口口口
口口
口口口口

口⑤⑤口
口口③口 |②-③-|
④口 |④---|
口口口口 |⑤---|
47
|①---|
②口口② |②---|
①口口① |③---|
口口口口 |----|
48
口口口口 |----|
口口口口 |----|
口口口口 |----|
口口口口 |----|
49
口 |①---|
口口口口 |----|
口口口口 |----|
口口口口 |----|
50
口口口口 |----|
口口口口 |----|
口口口口 |----|
口口口口 |----|
51
口口口口 |----|
口口口口 |----|
口口口口 |----|
口口口口 |----|
52
口口口口 |----|
口①口口 |----|
口口②口 |----|
口口口口 |①-②-|
53
口口口口 |①---|
口口口口
口口口口
口口

⑤口口⑤
口口④口 |②-③-|
口③口口 |④---|
口口 |⑤---|
54
口口口口 |①-②-|
口①②口 |③-④-|
口③④口
口口口口

口⑥口口
口口⑦口
口口口口 |⑤---|
口⑤口口 |⑥-⑦-|
55
口口口口 |①---|
口口口口
口口
口口口口

口口口口
口④口口 |②-③-|
③口 |④---|
口⑤⑤口 |⑤---|
56
③口④③ |①---|
②⑤口② |②---|
①口口① |③---|
口口口口 |④-⑤-|
57
④口口④ |①---|
口口口口 |--②-|
口③①口 |③---|
口口②口 |④---|
58
口口口口 |①-②-|
⑥①②⑦ |③-④-|
口③④口 |⑤---|
口⑤口口 |⑥-⑦-|
59
口 |①---|


口口口口


口口口口 |②-③-|
口③④口 |④---|
口口口口 |⑤---|
60
口 |①---|
口 |②---|
② |③---|
① |----|
61
口口口口 |----|
口口口口 |----|
口口口口 |----|
口口口口 |----|
62
口 |①--②|
③口口口 |-③-④|

口口口口
63
口口口口 |----|
④口②③ |①-②-|
口口口 |③---|
口口口口 |④---|
64
口口①口 |①-②-|
口③②口 |③-④-|
口④口口
口口口口

口口口口
口口⑦口
口口⑥口 |⑤---|
口⑤口口 |⑥-⑦-|
65
③口①③ |①---|
口②口口 |--②-|
口④④口 |③---|
口口口口 |④---|
66
口口口口 |①---|
③④⑤③ |②---|
②口口② |③---|
①口口① |④-⑤-|
67
口口口口 |①---|
口②③口 |--②-|
口口①口 |③---|
口④口口 |④---|
68
口口口口 |①-②-|
②④⑤③ |③-④-|
①口口口 |⑤---|
⑥口口⑦ |⑥-⑦-|
69
口口口口 |①---|
口②③口 |--②-|
①口口口 |③---|
口④口口 |④---|
70
|①---|
|②---|
②口口口 |③---|
①口口口 |----|
71
口口口口 |----|
口口口口 |----|
口口口口 |----|
口口口口 |----|
72
口口口 |----|
口口口 |----|
口口口口 |----|
口口口口 |--①-|

不確定度: 0

最終更新:2016年03月14日 11:58