Too Late Snow [2]
movies (moimoi × Xceon × Dai.)

ADVANCED

Level: 9
BPM: 138
Notes: 723

1
口口口口 |----|
口口口口 |----|
口口口口 |----|
口口口口 |----|
2
口口口口 |①-②-|
口口口口 |③-④-|
①②⑧⑦ |⑤-⑥-|
⑤⑥④③ |⑦-⑧-|
3
口口口① |①-②-|
口口⑦② |③-④-|
③口⑥④ |⑤---|
⑤口口口 |⑥-⑦-|
4
口⑥①⑤ |①-②-|
②④口③ |③-④-|
口口⑦口 |⑤-⑥-|
口⑧口口 |⑦-⑧-|
5
口口口口 |①-②-|
口②口口 |③-④-|
口④口③
口口口①

口口口口
口口口⑤
口口口口 |⑤---|
|⑥---|
6
③⑦口⑤ |①-②③|
②⑥口④ |④⑤⑥⑦|
口口①口


口口口口
口口⑧口
口⑫⑩⑭ |⑧-⑨⑩|
口⑪⑨⑬ |⑪⑫⑬⑭|
7
③⑦口⑤ |①-②③|
②⑥⑧④ |④⑤⑥⑦|
①⑫⑩⑭ |⑧-⑨⑩|
口⑪⑨⑬ |⑪⑫⑬⑭|
8
③⑦①⑤ |①-②③|
②⑥⑧④ |④⑤⑥⑦|
①⑫⑩⑭ |⑧-⑨⑩|
⑧⑪⑨⑬ |⑪⑫⑬⑭|
9
①口口① |①---|
②口口② |②---|
口④④口 |③---|
③口口③ |④---|
10
④①①⑤ |①-②-|
②③③口 |③-④⑤|
口口口口
口口口口

口口口口
⑨⑪口⑩
⑥⑧⑧⑦ |⑥⑦-⑧|
口口口口 |-⑨⑩⑪|
11
口①①⑦ |①-②-|
⑥⑩⑪⑨ |③④-⑤|
③⑧⑤④ |⑥⑦-⑧|
②口口② |-⑨⑩⑪|
12
口②②口 |①---|
口口口口 |②---|
口口口口
口①①口

口口口口
⑦口⑧⑥
③口口④ |③④-⑤|
口⑤⑤口 |-⑥⑦⑧|
13
②口⑤② |①-②-|
口口口口 |③④-⑤|
口③④口
①口口①

口⑥口口
口口口⑦
口口口口 |⑥⑦-⑧|
口口口⑧ |----|
14
口口③口 |①---|
口口口口 |②-③-|
④②②④ |④---|
⑤①①⑤ |⑤---|
15
①口口① |①-②-|
口③③② |③-④-|
口口口④
口口口口

口⑥⑥口
口⑦口口
口⑤⑤口 |⑤---|
口口口口 |⑥-⑦-|
16
③口口③ |①---|
口口口口 |②---|
②口口② |③---|
④①口④ |④---|
17
口口口口 |①---|
口②②口 |②---|
口口口口
口①①口

口③③口
口口口口
口④⑤口 |③---|
口④⑤口 |④-⑤-|
18
口④④口 |①---|
②口③口 |②---|
②口③① |③---|
口口口① |④---|
19
①口口口 |①-②-|
口②口口 |③-④-|
口口④口
口③口口

⑥⑥口口
⑦⑦口口
口口口口 |⑤---|
口口口⑤ |⑥-⑦-|
20
口口口口 |①---|
口口口口 |----|
①①口口 |②---|
②口口② |----|
21
口③③口 |①---|
②③③② |②---|
口②②口 |③---|
口①①口 |----|
22
口口口口 |①-②-|
⑥口口⑥ |③-④-|
口②④口 |⑤---|
口①③⑤ |⑥---|
23
⑥口口② |①-②-|
口口口口 |③-④-|
⑧①①④ |⑤-⑥-|
③⑤⑦口 |⑦-⑧-|
24
口口口口 |①-②-|
④③⑥⑧ |③-④-|
⑤口②口 |⑤-⑥-|
口口⑦① |⑦-⑧-|
25
口③口② |①-②-|
口口口口 |③-④-|
④口①口
口口口口

口口口口
口⑤口口
口口⑧⑥ |⑤-⑥-|
口⑦口口 |⑦-⑧-|
26
口口口口 |①-②-|
③④②① |③-④-|
⑦⑧⑥⑤ |⑤-⑥-|
口口口口 |⑦-⑧-|
27
口④口口 |①-②-|
③②口③ |③-④-|
口口口口
口①①口

口口口口
⑧口⑥口
口⑤⑦⑤ |⑤-⑥-|
口⑦口口 |⑦-⑧-|
28
口①①② |①-②-|
口口口口 |③-④-|
口③口口
口口③④

口口口口
⑦⑥⑦口
⑤⑧⑤口 |⑤-⑥-|
口口口口 |⑦-⑧-|
29
口①①② |①-②-|
⑥④⑧口 |③-④-|
口⑤口⑦ |⑤-⑥-|
⑦③③⑤ |⑦-⑧-|
30
①口口口 |①②③④|
⑤③口口 |⑤⑥⑦⑧|
②⑥⑦口
口④⑧口

⑪口口口
⑮⑬口口
⑫⑯口⑨ |⑨⑩⑪⑫|
口⑭口⑩ |⑬⑭⑮⑯|
31
③口口③ |①-②-|
口口①① |③-④-|
口口口口
②口④口

口口⑧口
⑤口口⑦
⑦⑥⑤口 |⑤-⑥-|
口口口口 |⑦-⑧-|
32
口①口口 |①-②-|
②口④口 |③-④-|
口口口③
口③①口

口⑥口⑧
⑦口口⑦
⑤口⑤口 |⑤-⑥-|
口口口口 |⑦-⑧-|
33
口③口口 |①-②-|
口口④口 |③-④-|
②口口③
①口①口

口口⑧口
⑤口口口
口口⑤口 |⑤-⑥-|
⑦⑥口⑦ |⑦-⑧-|
34
口① |①---|
口口 |②---|
口口
口口口口

口口
口口
口 |③---|
口口口口

口口口
口口口
口口
口口口口 |④---|
35
口③③口 |①-②-|
④①口口 |③-④-|
②口口
口口①口

⑥口口口
口口口⑧
口口⑤⑦ |⑤-⑥-|
⑤⑦口口 |⑦-⑧-|
36
口②口口 |①-②-|
③口③口 |③-④-|
①口口④
口口①口

口口⑤口
口口口口
⑥口⑧口 |⑤-⑥-|
⑦⑤口⑦ |⑦-⑧-|
37
口①口口 |①-②-|
②口口④ |③-④-|
③口口③
口口①口

口⑥口口
口口口口
口口⑤口 |⑤-⑥-|
⑦⑤⑧⑦ |⑦-⑧-|
38
①③④口 |①-②-|
口口口口 |③-④-|
口口②口
口口口口

口口口口
口⑤⑥口
口⑦⑧口 |⑤-⑥-|
口口口口 |⑦-⑧-|
39
口①①口 |①②③④|
⑦③口⑥ |⑤⑥⑦⑧|
口口口②
⑤口⑧④

⑪口口⑫
口⑮口口
⑬⑨⑩⑯ |⑨⑩⑪⑫|
口口口⑭ |⑬⑭⑮⑯|
40
口口③口 |①---|
①口④① |②-③-|
④②②口 |④---|
⑤口口⑤ |⑤---|
41
①口口① |①-②-|
口③③② |③-④-|
口口口④
口口口口

口⑥⑥口
口⑦口口
口⑤⑤口 |⑤---|
口口口口 |⑥-⑦-|
42
③口口③ |①---|
口口口口 |②---|
②口口② |③---|
④①口④ |④---|
43
口口口口 |①---|
口②②口 |②---|
口口口口
口①①口

口③③口
口口口口
口④⑤口 |③---|
口④⑤口 |④-⑤-|
44
口④④口 |①---|
②口③口 |②---|
②口③① |③---|
口口口① |④---|
45
①口口口 |①-②-|
口②口口 |③-④-|
口口④口
口③口口

⑥⑥口口
⑦⑦口口
口口口口 |⑤---|
口口口⑤ |⑥-⑦-|
46
口口口口 |①---|
口口口口 |----|
①①口口 |②---|
②口口② |----|
47
口③③口 |①---|
②③③② |②---|
口②②口 |③---|
口①①口 |----|
48
口口口口 |①---|
口口口口 |②---|
口口口②
口①口口

口口口口
口⑦口⑤
口③④口 |③④-⑤|
口⑥⑧⑤ |-⑥⑦⑧|
49
⑤口⑧② |①-②-|
口⑩①口 |③④-⑤|
③④⑦⑥ |⑥⑦-⑧|
口⑨⑪口 |-⑨⑩⑪|
50
②口口口 |①---|
口口①① |②---|
口口口口
口口口口

口⑤口口
⑧口口⑥
③④口口 |③④-⑤|
口口口⑦ |-⑥⑦⑧|
51
口⑧口口 |①-②-|
⑦④⑥⑤ |③④-⑤|
口③②② |⑥⑦-⑧|
①①口口 |----|
52
口口口口 |①---|
口口口口 |----|
|----|
|----|
53
口口口口 |①-②-|
③口口⑤ |-③④⑤|
②④口
口①口

口口口口
口口⑥口
⑪口⑧⑩ |⑥-⑦⑧|
口口⑦⑨ |-⑨⑩⑪|
54
⑦口③⑥ |①-②③|
口①口② |④⑤⑥⑦|
口④口口
口口⑤口

口⑩口口
⑨⑨⑫口
⑪口口口 |⑧-⑨-|
⑧⑧口⑬ |⑩⑪⑫⑬|
55
口口口⑤ |①-②-|
③口口② |-③④⑤|
口①口④
口口口口

口⑥⑦口
口口⑧口
口⑩口口 |⑥-⑦⑧|
⑨口口⑪ |-⑨⑩⑪|
56
口②口口 |①-②③|
④口⑤口 |④⑤⑥⑦|
口口③①
口⑥⑦口

⑧⑩口⑧
口⑫⑬口
口口口⑪ |⑧-⑨-|
⑨口口⑨ |⑩⑪⑫⑬|
57
②⑩⑪口 |①-②-|
⑤口口⑨ |-③④⑤|
①口⑧⑥ |⑥-⑦⑧|
③⑦口④ |-⑨⑩⑪|
58
口口口口 |①-②③|
口①口口 |-④⑤⑥|
口口⑤②
④口③⑥

口口口口
⑨⑧口⑪
⑩口口⑫ |⑦-⑧-|
口⑦口口 |⑨⑩⑪⑫|
59
②①①② |①-②-|
口口口口 |-③④⑤|
口④口口
口③⑤口

口口口口
⑩⑦⑧⑨
口口⑥口 |⑥-⑦⑧|
口⑪口口 |-⑨⑩⑪|
60
口口⑦⑧ |①-②③|
⑫⑤⑥⑩ |-④⑤⑥|
口④③① |⑦-⑧-|
⑪口②⑨ |⑨⑩⑪⑫|
61
⑤口口⑥ |①②③④|
口口口口 |⑤⑥⑦⑧|
②⑦⑧④
口①③口

口口口口
⑩⑭⑯⑫
口口口口 |⑨⑩⑪⑫|
⑨⑬⑮⑪ |⑬⑭⑮⑯|
62
口口口 |①---|
口口口
口口口
口口口口

口口口
口口口口 |---②|
口口口口
口口口口
63
口①①口 |----|
⑤口口③ |①-②-|
口口⑥⑤ |③-④-|
③④②口 |⑤-⑥-|
64
口①①口 |①-②-|
口③口② |③-④-|
口口口④
口口③口

口⑦口口
口口⑧口
⑥口⑦口 |⑤-⑥-|
口⑤口⑤ |⑦-⑧-|
65
口口①口 |①-②-|
②口口③ |③-④-|
口①口④
口③口口

⑤⑥口⑤
口口口口
口⑦⑦口 |⑤-⑥-|
口⑧口口 |⑦-⑧-|
66
口口口口 |①-②-|
口②口口 |③-④-|
③④口③
①口口①

口口口口
⑤⑦⑧⑤
口口口口 |⑤-⑥-|
⑥⑦⑧口 |⑦-⑧-|
67
口③①口 |①-②-|
②口口③ |③-④-|
口口①④
口口口口

口口口口
口口⑤口
口⑤⑦口 |⑤-⑥-|
⑥⑦口⑧ |⑦-⑧-|
68
口③④口 |①-②-|
②口口③ |③-④-|
①口口口
口口①口

⑤口口口
口口⑤口
口口⑦口 |⑤-⑥-|
⑦口⑥⑧ |⑦-⑧-|
69
③口①口 |①-②-|
②④口③ |③-④-|
①口④口
口口口口

口口口口
口口⑤口
⑥⑤口⑧ |⑤-⑥-|
口⑦⑦口 |⑦-⑧-|
70
口口①口 |①-②-|
口口③口 |③-④-|
③②口口
①口口④

口口⑦口
口口⑧口
口口⑤口 |⑤-⑥-|
口口⑥口 |⑦-⑧-|
71
口口口口 |①---|
口口口口 |----|
|----|
|----|
72
口口口口 |----|
口口口口 |----|
口口口口 |----|
口口口口 |----|
73
口口口口 |----|
口口口口 |----|
口口口口 |----|
口口口口 |----|
74
口口口口 |----|
口口口口 |----|
口口口 |①---|
口口口 |----|

不確定度: 0

最終更新:2016年03月14日 11:58