Too Late Snow [2]
movies (moimoi × Xceon × Dai.)

EXTREME

Level: 10
BPM: 138
Notes: 906

1
①口口口 |----|
②口口口 |----|
口口口口 |----|
口口口口 |①-②-|
2
口口口口 |①-②-|
⑦口④⑤ |③-④-|
①②⑧⑦ |⑤-⑥-|
⑤⑥④③ |⑦-⑧-|
3
口口①① |①-②-|
口③②② |③-④-|
③④口④
口口口口

口口口口
口口⑦口
口口⑥口 |⑤---|
⑤⑤口口 |⑥-⑦-|
4
口 |①-②-|
②口口口
口口口口
口口口口

⑤⑥
口④口③ |③-④-|
④⑦⑦口 |⑤-⑥-|
口⑧口口 |⑦-⑧-|
5
口口口口 |①-②-|
口②口口 |③-④-|
③④口③
①口口①

口口口口
⑤⑥⑦⑤
口口口口 |⑤---|
|⑥-⑦-|
6
③⑦口⑤ |①-②③|
②⑥口④ |④⑤⑥⑦|
口口①口


口口口口
口口⑧口
口⑫⑩⑭ |⑧-⑨⑩|
口⑪⑨⑬ |⑪⑫⑬⑭|
7
③⑦口⑤ |①-②③|
②⑥⑧④ |④⑤⑥⑦|
①⑫⑩⑭ |⑧-⑨⑩|
⑪⑪⑨⑬ |⑪⑫⑬⑭|
8
③⑦①⑤ |①-②③|
②⑥⑧④ |④⑤⑥⑦|
①⑫⑩⑭ |⑧-⑨⑩|
⑧⑪⑨⑬ |⑪⑫⑬⑭|
9
①口口① |①---|
②口口② |②---|
口④④口 |③---|
|④---|
10
④①①⑤ |①-②-|
②③③口 |③-④⑤|
口口口口
口口口口

口口口口
⑨⑪口⑩
⑥⑧⑧⑦ |⑥⑦-⑧|
口口口口 |-⑨⑩⑪|
11
口①①⑦ |①-②-|
⑥⑩⑪⑨ |③④-⑤|
③⑧⑤④ |⑥⑦-⑧|
② |-⑨⑩⑪|
12
口②②口 |①---|
口口口口 |②---|
口口口口
口①①口

口口口口
⑦口⑧⑥
③口口④ |③④-⑤|
口⑤⑤口 |-⑥⑦⑧|
13
②口⑤② |①-②-|
口口口口 |③④-⑤|
口③④口
①口口①

口⑥口口
口⑩⑨⑦
口口口口 |⑥⑦-⑧|
口口口⑧ |⑨-⑩-|
14
口口口 |①---|
口口口
口口口口
口①①口

口口③口
口④口 |②-③-|
④②②④ |④---|
⑤⑤⑤⑤ |⑤---|
15
①①口① |①-②-|
③③③② |③-④-|
口口口④
口口口口

口⑥⑥口
口⑦口口
⑤⑤⑤口 |⑤---|
口口口口 |⑥-⑦-|
16
口口口口 |①---|
口口口口
口口口口


④口口④
口④④口 |②-③-|
②⑤⑤② |④---|
口⑤ |⑤---|
17
口口口口 |①---|
②②②② |②---|
①口口①
口①①口

③③③③
口口口口
口④⑤口 |③---|
口④⑤口 |④-⑤-|
18
口口口口 |①---|
口口口
口口口
口口口①

口⑤⑤口
②③④口 |②-③-|
②口④ |④---|
口口口口 |⑤---|
19
①口口口 |①-②-|
①②口口 |③-④-|
口③④口
口③口口

⑥⑥口口
⑦⑦口口
口口口⑤ |⑤---|
口口口⑤ |⑥-⑦-|
20
口口口口 |①---|
口口口口
口口
口口

口⑤⑤口
口口③口 |②-③-|
④口 |④---|
④口口④ |⑤---|
21
|①---|
②③③② |②---|
①②②① |③---|
口①①口 |----|
22
口 |①-②-|
⑥口口⑥ |③-④-|
口②④口 |⑤---|
口①③⑤ |⑥---|
23
口口② |①-②-|
口口口 |③-④-|
①①④
口口口

口口
口口
口口 |⑤-⑥-|
口口

口口
口口
⑧口
口 |⑦-⑧-|
24
口口口 |①-②-|
口口口
口口②
口口

口口口口
④③⑥⑧ |③-④-|
⑤⑤口⑦ |⑤-⑥-|
口口⑦ |⑦-⑧-|
25
口口口② |①-②-|
口口口口
口口
口口

口③口口
口口口口 |③-④-|
④口
口口口口

口口口口
⑤⑤口口
口口⑧⑥ |⑤-⑥-|
口⑦⑦口 |⑦-⑧-|
26
|①-②-|
③④②① |③-④-|
口口口口
口口口口


口口口口
⑦⑧⑥⑤ |⑤-⑥-|
口口口口 |⑦-⑧-|
27
口④口口 |①-②-|
③②口③ |③-④-|
口口口口
口①①口

口口口口
⑧口⑥口
口⑤⑦⑤ |⑤-⑥-|
口⑦口口 |⑦-⑧-|
28
口①①② |①-②-|

口口口口
口口口口

口口口口
口口口 |③-④-|
口③口口
口口③④

口口口口
⑦⑥⑦⑧
⑤⑧⑤⑥ |⑤-⑥-|
口口口口 |⑦-⑧-|
29
② |①-②-|

口口口口
口口口口


口④口口 |③-④-|
④口口口
口③③口


⑥口⑧口
口⑤⑥⑦ |⑤-⑥-|
⑦口口⑤ |⑦-⑧⑨|
30
①口口口 |①②③④|
⑤③口口 |⑤⑥⑦⑧|
②⑥⑦口
口④⑧口

⑪口
⑮⑬口口
⑫⑯口⑨ |⑨⑩⑪⑫|
口⑭口⑩ |⑬⑭⑮⑯|
31
口口口口 |①-②-|

口口口口
②口口口

③④⑨③
⑤⑦⑧ |③-④-|
⑧⑥⑤口 |⑤-⑥⑦|
口口④口 |⑧-⑨-|
32
口①口口 |①-②-|
②口口口
口口口口


口⑥⑨⑨
⑧⑦④⑧ |③-④-|
⑤④⑤③ |⑤-⑥⑦|
口③口 |⑧-⑨-|
33
口口口口 |①-②-|
口口口口
②口口口


口③⑨口
⑤⑦④口 |③-④-|
口④⑤③ |⑤-⑥⑦|
⑧⑥⑧ |⑧-⑨-|
34
口① |①---|
口口 |②---|
口口
口口口

口口
口口
口 |③---|
口口口口

口口
口口口
口口
口口口口 |④---|
35
口口口口 |①-②-|
口①口口
②口口


口③③口
④口口口 |③-④-|
口④口口
口口

⑥口⑨口
口⑦口⑨
口口⑤⑧ |⑤-⑥⑦|
⑤⑧口口 |⑧-⑨-|
36
口②口口 |①-②-|
口口口口
①口口口


口口⑤口
③⑦③口 |③-④-|
⑥④⑨④ |⑤-⑥⑦|
⑧⑤⑧ |⑧-⑨-|
37
口①口口 |①-②③|
②口⑤⑤ |④-⑤-|
④③口④
口口①口

口⑦口口
口⑧口口
口口⑥口 |⑥-⑦⑧|
⑨⑥⑩⑨ |⑨-⑩-|
38
③④ |①-②-|
口口 |③-④-|
口②
口口

口口口口
口⑤⑥口
口⑦⑧口 |⑤-⑥-|
口口口口 |⑦-⑧-|
39
①① |①②③④|
⑦③口⑥ |⑤⑥⑦⑧|
口口口②
⑤口⑧④

⑪口口⑫
口⑮⑬口
⑬⑨⑩⑯ |⑨⑩⑪⑫|
口口口⑭ |⑬⑭⑮⑯|
40
口口口 |①---|
口口①
口口口口
口口口口

口口③口
口④口 |②-③-|
④②②口 |④---|
⑤⑤⑤⑤ |⑤---|
41
①①口① |①-②-|
③③③② |③-④-|
口口口④
口口口口

口⑥⑥口
口⑦口口
⑤⑤⑤口 |⑤---|
口口口口 |⑥-⑦-|
42
口口口口 |①---|
口口口口
口口口口


④口口④
口④④口 |②-③-|
②⑤⑤② |④---|
口⑤ |⑤---|
43
口口口口 |①---|
②②②② |②---|
①口口①
口①①口

③③③③
口口口口
口④⑤口 |③---|
口④⑤口 |④-⑤-|
44
口口口口 |①---|
口口口口
口口口
口口口

口⑤⑤口
②③④口 |②-③-|
②口④ |④---|
口口口口 |⑤---|
45
①口口口 |①-②-|
①②口口 |③-④-|
口③④口
口③口口

⑥⑥口口
⑦⑦口口
口口口⑤ |⑤---|
口口口⑤ |⑥-⑦-|
46
口口口口 |①---|
口口口口
口口
口口口口

口⑤⑤口
口口③口 |②-③-|
④口 |④---|
④口口④ |⑤---|
47
|①---|
②③③② |②---|
①②②① |③---|
口①①口 |----|
48
口口口口 |①---|
口口口口 |②---|
口口口②
口①口口

口口口口
口⑦口⑤
口③④口 |③④-⑤|
口⑥⑧⑤ |-⑥⑦⑧|
49
② |①-②-|
口口①口 |③④-⑤|
③④口口
口口口口

口口⑧口
口⑩口口
口口⑦⑥ |⑥⑦-⑧|
口⑨⑪口 |-⑨⑩⑪|
50
②口口口 |①---|
口口①① |②---|
口口口口
口口口口

口⑤口口
⑧口口⑥
③④口口 |③④-⑤|
口口口⑦ |-⑥⑦⑧|
51
口⑧口口 |①-②-|
⑦④⑥⑤ |③④-⑤|
口③②② |⑥⑦-⑧|
①①口口 |----|
52
口口口口 |①---|
口口口口 |----|



口口口口
口②口口
口口③口 |----|
口口口口 |②-③-|
53
口口口口 |①-②-|
口口口口
②口口


⑩口口⑩
④口⑦⑥ |③④⑤⑥|
⑬⑤⑨⑫ |⑦-⑧⑨|
⑧⑪ |⑩⑪⑫⑬|
54
⑦口③⑥ |①-②③|
①①②② |④⑤⑥⑦|
口④⑥口
口口⑤口

口⑩口口
⑨⑨⑫口
⑪口口口 |⑧-⑨-|
⑧⑧口⑬ |⑩⑪⑫⑬|
55
口口口口 |①-②-|
口口口②
口口
口口口口

口口口⑥
④口口口 |③④⑤⑥|
⑤⑤
口口口口

口⑦⑧口
口⑦⑨口
口⑫口口 |⑦-⑧⑨|
⑪⑩⑩⑬ |⑩⑪⑫⑬|
56
口②口口 |①-②③|
④口⑤④ |④⑤⑥⑦|
①口③①
口⑥⑦口

⑧⑩⑩⑧
口⑫⑬⑫
口口口⑪ |⑧-⑨-|
⑨口口⑨ |⑩⑪⑫⑬|
57
②口口口 |①-②-|
⑤口口口 |-③④⑤|
①口①口
③口④④

⑨⑪⑫⑨
口口口⑩
口⑥⑧⑥ |⑥-⑦⑧|
口⑦口口 |⑨⑩⑪⑫|
58
口口口口 |①-②③|
口①②口 |④⑤⑥⑦|
口④⑥②
⑤口③⑦

口口口口
⑩⑨口⑫
⑪口口⑬ |⑧-⑨-|
口⑧口口 |⑩⑪⑫⑬|
59
② |①-②-|


口口口口


口口口口 |③④⑤⑥|
口⑤口口
口④⑥口

⑩口口⑩
⑫⑧⑨⑪
口口⑦口 |⑦-⑧⑨|
口⑬口口 |⑩⑪⑫⑬|
60
口口口口 |①-②③|
口⑥⑦口 |④⑤⑥⑦|
④⑤③④
①口②①



口 |⑧-⑨-|
⑩ |⑩⑪⑫⑬|
61
⑤口口⑥ |①②③④|
口口口口 |⑤⑥⑦⑧|
②⑦⑧④
口①③口

口口口口
⑩⑭⑯⑫
口口口口 |⑨⑩⑪⑫|
⑨⑬⑮⑪ |⑬⑭⑮⑯|
62
|①--②|
口口口
口口口
口口口口

口口口
③口口口 |-③-④|

口口口口
63
口①①口 |----|
⑤口②③ |①-②-|
口⑥⑤ |③-④-|
③④②口 |⑤-⑥-|
64
口①①口 |①-②-|
口③②② |③-④-|
口④口④
口口③口

口⑦口口
口口⑧口
⑥口⑦口 |⑤-⑥-|
口⑤口⑤ |⑦-⑧-|
65
口口①口 |①-②-|
②④口③ |③-④-|
口①口④
口③口口

⑤⑥口⑤
口口口口
口⑦⑦口 |⑤-⑥-|
口⑧口口 |⑦-⑧-|
66
口口口口 |①-②-|
口②口口 |③-④-|
③④口③
①口口①

口口口口
⑤⑦⑧⑤
口口口口 |⑤-⑥-|
⑥⑦⑧口 |⑦-⑧-|
67
口③①口 |①-②-|
②④口③ |③-④-|
口口①④
口口口口

口口口口
口口⑤口
口⑤⑦口 |⑤-⑥-|
⑥⑦口⑧ |⑦-⑧-|
68
口③④口 |①-②-|
②④口③ |③-④-|
①②口口
口口①口

⑤口口口
口口⑤口
口口⑦口 |⑤-⑥-|
⑦口⑥⑧ |⑦-⑧-|
69
③口①口 |①-②-|
②④口③ |③-④-|
①口④口
口口口口

口口口口
口口⑤口
⑥⑤口⑧ |⑤-⑥-|
口⑦⑦口 |⑦-⑧-|
70
口口①口 |①-②-|
口口③口 |③-④-|
③②口口
①口口④



口口⑤口 |⑤-⑥-|
口口⑥口

口口⑦口
口口⑧口
口口口口
口口口口 |⑦-⑧-|
71
口口口口 |①---|
口口口口 |----|
|----|
|----|
72
口口口 |----|
口口口 |----|
口口口口 |----|
口口口口 |--①-|
73
口口口口 |----|
口口口口 |----|
口口口口 |----|
口口口口 |----|
74
口口口口 |----|
口口口口 |----|
口口口 |①---|
口口口 |----|

不確定度: 0

最終更新:2016年03月14日 11:57