3 A.M. ディテクティブ・ゲーム
日向美ビタースイーツ♪

ADVANCED

Level: 6
BPM: 162
Notes: 502

1
口口口口 |----|
口口口口 |----|
口口口口 |----|
口口口口 |----|
2
口②①口 |①-②-|
口④③口 |③-④-|
口⑥⑤口 |⑤-⑥-|
口⑧⑦口 |⑦-⑧-|
3
⑥口口⑥ |①-②-|
口⑤⑤口 |③-④-|
④口口③ |⑤--⑥|
②口口① |----|
4
口⑧⑦口 |①-②-|
口⑥⑤口 |③-④-|
口④③口 |⑤-⑥-|
口②①口 |⑦-⑧-|
5
⑤口口⑤ |①-②-|
口口口口 |③-④-|
④⑥⑥③ |⑤---|
②口口① |⑥---|
6
口②①口 |①-②-|
口④③口 |③-④-|
口⑥⑤口 |⑤-⑥-|
口⑧⑦口 |⑦-⑧-|
7
⑥口口⑥ |①-②-|
口⑤⑤口 |③-④-|
④口口③ |⑤--⑥|
②口口① |----|
8
口⑧⑦口 |①-②-|
口⑥⑤口 |③-④-|
口④③口 |⑤-⑥-|
口②①口 |⑦-⑧-|
9
⑤口口⑤ |①-②-|
口口口口 |③-④-|
④⑥⑥③ |⑤---|
②口口① |⑥---|
10
口③②口 |①---|
口①①口 |----|
口口口口 |----|
口口口口 |②-③-|
11
口口口口 |----|
口口②口 |----|
口口①口 |----|
口口口口 |①-②-|
12
口口口口 |----|
口①口③ |①-②-|
④②口口 |--③-|
口口口⑤ |④-⑤-|
13
口口口口 |----|
口口①口 |----|
口口口口 |----|
口口口口 |--①-|
14
口②③口 |①---|
口①口口 |----|
口口口口 |----|
口口口口 |②-③-|
15
口口口口 |----|
口②口口 |----|
口①口口 |----|
口口口口 |①-②-|
16
④口口口 |----|
③口①口 |①-②-|
口口②口 |----|
口口口口 |③-④-|
17
②口口② |----|
口③口口 |----|
①口口① |①---|
口口口口 |②-③-|
18
口③②口 |①---|
口口①口 |----|
口口口口 |----|
口口口口 |②-③-|
19
口口口口 |----|
口口②口 |----|
口口①口 |----|
口口口口 |①-②-|
20
口口口口 |----|
口①口③ |①-②-|
④②口口 |--③-|
口口口⑤ |④-⑤-|
21
口口口口 |----|
口口①口 |----|
口口口口 |----|
口口口口 |--①-|
22
口②③口 |①---|
口①口口 |----|
口口口口 |----|
口口口口 |②-③-|
23
口口口口 |----|
口②口口 |----|
口①口口 |----|
口口口口 |①-②-|
24
③口口③ |----|
④口②④ |①-②-|
⑤口①⑤ |--③-|
口口口口 |④-⑤-|
25
口口口口 |----|
口口口口 |----|
口口口口 |----|
口口口口 |----|
26
口口口口 |①---|
口③口② |②---|
⑤口④口 |③-④-|
口①①口 |--⑤-|
27
②口口口 |--①-|
①口口口 |--②-|
口口口口 |----|
口口口口 |----|
28
口口口口 |①---|
②口③口 |②---|
口④口⑤ |③-④-|
口①①口 |--⑤-|
29
口口口② |--①-|
口③口① |--②-|
口口口口 |----|
口口口口 |--③-|
30
④口口④ |①---|
口口②口 |②-③-|
口③①口 |----|
口口口口 |④---|
31
口口⑥口 |①-②-|
⑤口①④ |③-④-|
口②口口 |--⑤-|
④口③⑤ |--⑥-|
32
口①⑧口 |①-②-|
口⑦②口 |③-④-|
口③⑥口 |⑤-⑥-|
口⑤④口 |⑦-⑧-|
33
⑤⑥口④ |①-②-|
①口口口 |③-④-|
口②口口 |--⑤-|
④口③⑤ |--⑥-|
34
口⑧①口 |①-②-|
口②⑦口 |③-④-|
口⑥③口 |⑤-⑥-|
口④⑤口 |⑦-⑧-|
35
④口口⑤ |①-②-|
⑥口口① |③-④-|
口口②口 |--⑤-|
⑤③口④ |--⑥-|
36
⑤口口⑤ |①-②-|
口口②⑥ |③-④-|
口①口③ |--⑤-|
口④④口 |--⑥-|
37
⑤口口⑤ |①-②-|
口②⑥口 |③-④-|
③口①⑥ |--⑤-|
口④④口 |--⑥-|
38
口口口口 |①---|
口①口口 |--②-|
①②②口
口口口口

口口口口
口口口口
④口口③ |----|
口④③口 |③-④-|
39
①口②① |----|
口口口口 |--①-|
口口口口 |----|
口口口口 |--②-|
40
口①⑧口 |①-②-|
口⑦②口 |③-④-|
口③⑥口 |⑤-⑥-|
口⑤④口 |⑦-⑧-|
41
⑤⑥口④ |①-②-|
①口口口 |③-④-|
口②口口 |--⑤-|
④口③⑤ |--⑥-|
42
口⑧①口 |①-②-|
口②⑦口 |③-④-|
口⑥③口 |⑤-⑥-|
口④⑤口 |⑦-⑧-|
43
④口口⑤ |①-②-|
⑥口口① |③-④-|
口口②口 |--⑤-|
⑤③口④ |--⑥-|
44
⑤口口⑤ |①-②-|
口口②⑥ |③-④-|
口①口③ |--⑤-|
口④④口 |--⑥-|
45
⑤口口⑤ |①-②-|
口②⑥口 |③-④-|
③口①⑥ |--⑤-|
口④④口 |--⑥-|
46
口口口口 |①---|
口①口口 |--②-|
①②②口 |----|
口③③口 |③---|
47
①口口① |--①-|
口③②口 |----|
口②③口 |②---|
口口口口 |③---|
48
①口口① |①---|
口口②口 |②---|
口③口口 |③---|
口口④口 |④---|
49
口口④口 |①---|
口③口口 |②---|
口口②口 |③---|
口①口口 |④---|
50
①口口口 |①---|
口口口② |②---|
③口口口 |③---|
口口口④ |④---|
51
口口口口 |①---|
口②②口 |----|
口①①口 |②---|
口口口口 |----|
52
口③②① |①-②-③-|
口⑥⑤④ |④-⑤-⑥-|
口⑨⑧⑦ |⑦-⑧-⑨-|
口⑫⑪⑩ |⑩-⑪-⑫-|
53
口③②① |①-②-③-|
口⑥⑤④ |④-⑤-⑥-|
口⑨⑧⑦ |⑦-⑧-⑨-|
口⑫⑪⑩ |⑩-⑪-⑫-|
54
口①①口 |①---|
口口口口 |----|
口②②口 |②---|
口口口口 |----|
55
④口口⑧ |①②③④|
③⑨⑨⑦ |⑤⑥⑦⑧|
②口口⑥ |⑨---|
①口口⑤ |----|
56
口口①口 |①---|
口②口口 |②---|
口口③口 |③---|
口④口口 |④---|
57
口口口④ |①---|
口口口口 |②-③-|
口②③口 |--④-|
口口①口 |----|
58
口①口口 |①---|
口口②口 |②---|
口③口口 |③---|
口口④口 |④---|
59
④口口口 |①---|
口口⑤口 |②-③-|
口③②口 |--④-|
口①口口 |--⑤-|
60
口口口④ |①-②-|
口①口口 |③-④-|
口③②口
口口口口

口口口口
口⑥口口
口口口⑤ |--⑤-|
口口口口 |--⑥-|
61
④口口口 |①-②-|
口口①口 |③-④-|
口②③口
口口口口

口口口口
口口⑥口
⑤口口口 |--⑤-|
口口口口 |--⑥-|
62
口口口口 |①---|
口②口口 |②-③-|
④①③④ |----|
⑤口口⑤ |④-⑤-|
63
①口②① |----|
口口口口 |--①---|
口口口口 |----|
口口口口 |--②-|
64
口①⑧口 |①-②-|
口⑦②口 |③-④-|
口③⑥口 |⑤-⑥-|
口⑤④口 |⑦-⑧-|
65
⑤⑥口④ |①-②-|
①口口口 |③-④-|
口②口口 |--⑤-|
④口③⑤ |--⑥-|
66
口⑧①口 |①-②-|
口②⑦口 |③-④-|
口⑥③口 |⑤-⑥-|
口④⑤口 |⑦-⑧-|
67
④口口⑤ |①-②-|
⑥口口① |③-④-|
口口②口 |--⑤-|
⑤③口④ |--⑥-|
68
⑤口口⑤ |①-②-|
口口②⑥ |③-④-|
口①口③ |--⑤-|
口④④口 |--⑥-|
69
⑤口口⑤ |①-②-|
口②⑥口 |③-④-|
③口①⑥ |--⑤-|
口④④口 |--⑥-|
70
口口口口 |①---|
口①口口 |--②-|
①②②口 |----|
口③③口 |③---|
71
①口口① |--①-|
③口口② |----|
口口口口 |②---|
口③②口 |③---|
72
口②①口 |①-②-|
口④③口 |③-④-|
口⑥⑤口 |⑤-⑥-|
口⑧⑦口 |⑦-⑧-|
73
⑥口口⑥ |①-②-|
口⑤⑤口 |③-④-|
④口口③ |⑤--⑥|
②口口① |----|
74
口⑧⑦口 |①-②-|
口⑥⑤口 |③-④-|
口④③口 |⑤-⑥-|
口②①口 |⑦-⑧-|
75
⑤口口⑤ |①-②-|
口口口口 |③-④-|
④⑥⑥③ |⑤---|
②口口① |⑥---|
76
口②①口 |①-②-|
口④③口 |③-④-|
口⑥⑤口 |⑤-⑥-|
口⑧⑦口 |⑦-⑧-|
77
⑥口口⑥ |①-②-|
口⑤⑤口 |③-④-|
④口口③ |⑤--⑥|
②口口① |----|
78
口⑧⑦口 |①-②-|
口⑥⑤口 |③-④-|
口④③口 |⑤-⑥-|
口②①口 |⑦-⑧-|
79
⑤口口⑤ |①-②-|
口口口口 |③-④-|
④⑥⑥③ |⑤---|
②口口① |⑥---|
80
口口口口 |①---|
③口口③ |--②-|
②口口② |----|
①口口① |③---|
81
⑤⑤⑤⑤ |--①-|
口②③口 |--②-|
②①①③ |③--④|
口④④口 |--⑤-|

不確定度: 0

最終更新:2016年07月27日 22:48