3 A.M. ディテクティブ・ゲーム
日向美ビタースイーツ♪

EXTREME

Level: 9
BPM: 162
Notes: 749

1
口口口口 |----|
口口口口 |----|
口口口口 |----|
口口口口 |----|
2
口口口口 |①---|
口口口口 |----|
口口口口
口①①口

口口口②
口口③口
口口④口 |②-③-|
口⑤口口 |④-⑤-|
3
③①①② |①---|
口③②口 |----|
口口口口 |②③-④|
口④④口 |----|
4
⑤①①口 |①---|
口④口口 |----|
口③口口 |②-③-|
口口②口 |④-⑤-|
5
口①①口 |①---|
口口口口 |----|
口口口口
口口口口

④④④④
口②②口
口③③口 |②-③-|
口口口口 |④---|
6
口口口口 |①-②③|
③口口② |④⑤⑥⑦|
⑤口口④
⑦①①⑥

口口口⑧
口口⑨口
口口⑩口 |⑧-⑨-|
口⑪口口 |⑩-⑪-|
7
⑨①①⑧ |①-②③|
③⑨⑧② |④⑤⑥⑦|
⑤口口④ |⑧⑨-⑩|
⑦⑩⑩⑥ |----|
8
⑪①①口 |①-②③|
③⑩口② |④⑤⑥⑦|
⑤⑨口④ |⑧-⑨-|
⑦口⑧⑥ |⑩-⑪-|
9
口①①口 |①-②③|
③口口② |④⑤⑥⑦|
⑤口口④
⑦口口⑥

⑨口⑩⑧
口⑧⑨口
口⑨⑧口 |⑧---|
口口口口 |⑨-⑩-|
10
口①口口 |①---|
口②口口 |----|
口③口口 |----|
口口口口 |②-③-|
11
口口口口 |----|
口口②口 |----|
口口①口 |----|
口口口口 |①-②-|
12
口口口口 |----|
口口口③ |①-②-|
④①口口 |--③-|
口②口⑤ |④-⑤-|
13
④③②① |--①-|
⑤口口口 |②-③-|
⑥口⑦口 |④-⑤-|
⑦口口口 |⑥-⑦-|
14
口口口口 |①---|
口②①口 |----|
口③口口 |----|
口口口口 |②-③-|
15
口口②口 |----|
口口口口 |----|
口口①口 |----|
口口口口 |①-②-|
16
口①口口 |----|
口④③口 |①-②-|
口②口口 |----|
口口口口 |③-④-|
17
⑤口口⑤ |--①-|
口口口③ |②-③-|
②口⑥口 |④---|
口④④① |⑤-⑥-|
18
口口口口 |①---|
口口口③ |②-③-|
口①口②
口口口口

口口口口
口④口口
口⑤口口 |----|
口口口口 |④-⑤-|
19
口口口口 |--①-|
口口⑤③ |②-③-|
口口④② |----|
口口口① |④-⑤-|
20
口口口口 |----|
口口口③ |①-②-|
④①口口 |--③-|
口②口⑤ |④-⑤-|
21
口口口口 |--①-|
口口③口 |②-③-|
口口②口
口口①口

口口口口
口口口口
口口口口 |----|
口口④口 |--④-|
22
②②②② |①---|
口口③口 |②---|
口①口口 |----|
口④口口 |③-④-|
23
口口口⑤ |--①-|
③口口⑤ |②-③-|
②口口口 |----|
①口④④ |④-⑤-|
24
②③③口 |----|
②④④口 |①-②-|
⑤⑤⑤⑤ |--③-|
①①口口 |④-⑤-|
25
口③③口 |--①-|
④口口① |②-③-|
口口口口 |--④-|
口⑤②口 |⑤---|
26
口口口口 |①---|
口③口② |②---|
口①①⑤ |③-④-|
口口④口 |--⑤-|
27
③②②③ |--①-|
口口①口 |--②-|
口口口口 |③---|
口口口口 |----|
28
口口口口 |①---|
②口③口 |②---|
⑤①①口 |③-④-|
口④口口 |--⑤-|
29
口②②口 |--①-|
口①口③ |--②-|
口口口口 |----|
口口口③ |--③-|
30
②口口口 |①---|
④③③④ |②-③-|
②①①口 |----|
口口口口 |④---|
31
⑤④⑤④ |①-②-|
⑥口口口 |③-④-|
④⑤④⑤ |--⑤-|
①③②① |--⑥-|
32
口口口口 |①-②-|
口口①① |③-④-|
口口③口
②③④口

口⑤⑦口
口⑦⑧口
⑤口口⑥ |⑤-⑥-|
口口口口 |⑦-⑧-|
33
①④⑤④ |①-②-|
①⑤⑥⑤ |③-④-|
口④⑤④ |--⑤-|
口③③② |--⑥-|
34
口⑦⑤② |①-②-|
①⑧⑦口 |③-④-|
⑥③口⑤ |⑤-⑥-|
①④③口 |⑦-⑧-|
35
④口④① |①-②-|
口口口① |③-④-|
④口④口
②③③口

口⑤口口
⑤口⑤口
口⑤口口 |--⑤-|
⑥口口口 |--⑥-|
36
口口⑤④ |①-②-|
口口④⑤ |③-④-|
口⑥口口 |--⑤-|
口①②③ |--⑥-|
37
④⑤口口 |①-②-|
⑤④口口 |③-④-|
口⑥①口 |--⑤-|
⑥③②口 |--⑥-|
38
③口③口 |①---|
口口①口 |②-③-|
口口口①
口②口②

口口口口
④口口⑤
④口口⑤ |----|
口口口口 |④-⑤-|
39
⑨④⑧⑬ |①②③④|
⑩③⑦⑭ |⑤⑥⑦⑧|
⑪②⑥⑮ |⑨⑩⑪⑫|
⑫①⑤⑯ |⑬⑭⑮⑯|
40
③①口口 |①-②-|
口①口口 |③-④-|
口③④口
口口②口

口口⑦口
口⑦⑧口
口口口⑥ |⑤-⑥-|
⑤⑤口口 |⑦-⑧-|
41
①④⑤④ |①-②-|
①⑤⑥⑤ |③-④-|
口④⑤④ |--⑤-|
口③③② |--⑥-|
42
口⑦⑤② |①-②-|
①⑧⑦口 |③-④-|
⑥③口⑤ |⑤-⑥-|
①④③口 |⑦-⑧-|
43
④口④① |①-②-|
口口口① |③-④-|
④口④口
②③③口

口⑤口口
⑤口⑤口
口⑤口口 |--⑤-|
⑥口口口 |--⑥-|
44
口口⑤④ |①-②-|
口口④⑤ |③-④-|
口⑥口口 |--⑤-|
口①②③ |--⑥-|
45
④⑤口口 |①-②-|
⑤④口口 |③-④-|
口⑥①口 |--⑤-|
⑥③②口 |--⑥-|
46
③口③口 |①---|
口口①口 |②-③-|
口④④① |----|
口②口② |④---|
47
①③②① |--①-|
口口口口 |----|
口②③口 |②---|
口口口口 |③---|
48
①⑥⑤① |①-②③|
口⑦②口 |④-⑤-|
③⑧口口 |⑥-⑦-|
口⑨④口 |⑧-⑨-|
49
⑦⑥⑤④ |①--②|
口③口口 |--③-|
口口②口 |④-⑤-|
口口口① |⑥-⑦-|
50
口口口④ |①-②-|
口口口③ |③-④-|
口口口②
口①①口

口口口口
口⑤⑤口
口⑦口口 |⑤---|
口口⑥口 |⑥-⑦-|
51
①口②① |--①-|
口③口口 |②-③-④-|
口口④口
口口口口

⑧口口口
⑦口口口
⑥口口口 |⑤---|
口⑤口口 |⑥-⑦-⑧-|
52
口③②① |①-②-③-|
口⑥⑤④ |④-⑤-⑥-|
口⑨⑧⑦ |⑦-⑧-⑨-|
口⑫⑪⑩ |⑩-⑪-⑫-|
53
③⑨⑫⑥ |①-②-③-|
⑤⑪⑧② |④-⑤-⑥-|
①⑦⑩④ |⑦-⑧-⑨-|
口口口口 |⑩-⑪-⑫-|
54
①口口⑤ |①②③④|
②口口⑥ |⑤⑥⑦⑧|
③⑨⑨⑦ |⑨---|
④口口⑧ |----|
55
④口口⑧ |①②③④|
③⑨⑨⑦ |⑤⑥⑦⑧|
②⑩口⑥ |⑨---|
①口口⑤ |--⑩-|
56
口②①口 |①-②-|
④口口③ |③-④-|
⑥口口⑤ |⑤-⑥-|
口⑧⑦口 |⑦-⑧-|
57
③口口口 |①-②-|
口②口口 |③-④-|
口口①④
口口口口

口口口⑤
口口口口
口口⑥口 |--⑤-|
口口口口 |--⑥-|
58
口①②口 |①-②-|
③口口④ |③-④-|
口口⑦口 |--⑤-|
⑥口口⑤ |⑥-⑦-|
59
⑤口口③ |①-②-|
口口②⑥ |③-④-|
④①口口 |--⑤-|
口口口口 |--⑥-|
60
口口⑤④ |①-②-|
①口④⑤ |③-④-|
口⑥口口 |--⑤-|
②口口③ |--⑥-|
61
⑤④口口 |①-②-|
④⑤口口 |③-④-|
⑥口①口 |--⑤-|
口③②口 |--⑥-|
62
口③口③ |①---|
口口口口 |②-③-|
口口口①
②口②口

口口口口
口口口口
⑤口口④ |----|
口口口口 |④-⑤-|
63
②口口② |----①-|
口口口口 |--②---|
口①①口
口口口口

口⑦⑦口
口口口口
口⑧口口 |③④⑤⑥|
⑥⑤④③ |⑦-⑧-|
64
②口口口 |①-②-|
口口①① |③-④-|
口口③口
口口④③

口⑤⑦口
口⑦⑧口
⑤口口⑥ |⑤-⑥-|
口口口口 |⑦-⑧-|
65
①④⑤④ |①-②-|
①⑤⑥⑤ |③-④-|
口④⑤④ |--⑤-|
口③③② |--⑥-|
66
口⑦⑤② |①-②-|
①⑧⑦口 |③-④-|
⑥③口⑤ |⑤-⑥-|
①④③口 |⑦-⑧-|
67
④口④① |①-②-|
口口口① |③-④-|
④口④口
②③③口

口⑤口口
⑤口⑤口
口⑤口口 |--⑤-|
⑥口口口 |--⑥-|
68
口口⑤④ |①-②-|
口口④⑤ |③-④-|
口⑥口口 |--⑤-|
口①②③ |--⑥-|
69
④⑤口口 |①-②-|
⑤④口口 |③-④-|
口⑥①口 |--⑤-|
⑥③②口 |--⑥-|
70
③口③口 |①---|
口口①口 |②-③-|
口④④① |----|
口②口② |④---|
71
①③②① |--①-|
口口口口 |----|
口②③口 |②---|
口口口口 |③---|
72
口口口口 |①-②③|
③口口② |④⑤⑥⑦|
⑤口口④
⑦①①⑥

口口口⑧
口口⑨口
口口⑩口 |⑧-⑨-|
口⑪口口 |⑩-⑪-|
73
⑨①①⑧ |①-②③|
③⑨⑧② |④⑤⑥⑦|
⑤口口④ |⑧⑨-⑩|
⑦⑩⑩⑥ |----|
74
⑪①①口 |①-②③|
③⑩口② |④⑤⑥⑦|
⑤⑨口④ |⑧-⑨-|
⑦口⑧⑥ |⑩-⑪-|
75
口①①口 |①-②③|
③口口② |④⑤⑥⑦|
⑤口口④
⑦口口⑥

⑩⑩⑩⑩
口⑧⑧口
口⑨⑨口 |⑧-⑨-|
口口口口 |⑩---|
76
口口口口 |①-②③|
③口口② |④⑤⑥⑦|
⑤口口④
⑦①①⑥

口口口⑧
口口⑨口
口口⑩口 |⑧-⑨-|
口⑪口口 |⑩-⑪-|
77
⑨①①⑧ |①-②③|
③⑨⑧② |④⑤⑥⑦|
⑤口口④ |⑧⑨-⑩|
⑦⑩⑩⑥ |----|
78
⑪①①口 |①-②③|
③⑩口② |④⑤⑥⑦|
⑤⑨口④ |⑧-⑨-|
⑦口⑧⑥ |⑩-⑪-|
79
⑨①①⑧ |①-②③|
③⑧⑨② |④⑤⑥⑦|
⑤⑨⑧④ |⑧---|
⑦口口⑥ |⑨---|
80
口②①口 |①②--|
②⑥⑤① |--③④|
④⑥⑤③ |----|
口④③口 |⑤⑥--|
81
①①口口 |--①-|
口口口口 |--②-|
口口口②
口口②口

口⑤⑤③
④⑤④⑤
⑤⑤③口 |③--④|
⑤⑤口④ |--⑤-|

不確定度: 0

最終更新:2016年07月27日 22:47