ぽかぽかレトロード
日向美ビタースイーツ♪

BASIC

Level: 4
BPM: 178
Notes: 345

1
口口口口 |----|
口口口口 |----|
口口口口 |----|
口口口口 |----|
2
口②口口 |①---|
口③口口 |----|
口①①口 |②---|
口口口口 |③---|
3
口口口口 |----|
口口口口 |----|
①②口口 |①---|
口口口口 |②---|
4
口口口口 |①---|
口口④③ |②---|
口口①② |③---|
口口口口 |④---|
5
口口口口 |①---|
②①口口 |②---|
口口口口 |----|
口口口口 |----|
6
口①③口 |①---|
口②④口 |②---|
口口口口 |③---|
口口口口 |④---|
7
口口口口 |----|
口口口口 |①---|
①口口① |----|
口②②口 |--②-|
8
口口口口 |----|
口②②口 |--①-|
口①①口 |----|
口口口口 |--②-|
9
口①①口 |----|
口口口口 |--①-|
口口口口 |----|
口口口口 |----|
10
口口口口 |①-②-|
口口口口 |--③-|
④④③③ |④---|
②②①①
11
④④③③ |①-②-|
②②①① |--③-|
口口口口 |④---|
口口口口
12
口口口口 |----|
口口口口 |----|
口口口口 |----|
口口口口
13
口口口口 |①---|
口口口口 |②---|
①②③④ |③---|
口口口口 |④---|
14
口口口口 |①---|
④③②① |②---|
口口口口 |③---|
口口口口 |④---|
15
①②③④ |①---|
口口口口 |②---|
口口口口 |③---|
口口口口 |④---|
16
口口口口 |①---|
口②②口 |②---|
口①①口 |----|
口口口口 |----|
17
口口口口 |①---|
口口口口 |②---|
④③②① |③---|
口口口口 |④---|
18
口口口口 |①---|
①②③④ |②---|
口口口口 |③---|
口口口口 |④---|
19
②③③② |①---|
口口口口 |--②-|
口①①口 |----|
口口口口 |--③-|
20
口口口口 |----|
口①①口 |--①-|
口口口口 |----|
口口口口 |----|
21
口口口口 |①---|
口口口口 |②---|
④③②① |③---|
口口口口 |④---|
22
口口口口 |①---|
①②③④ |②---|
口口口口 |③---|
口口口口 |④---|
23
④③②① |①---|
口口口口 |②---|
口口口口 |③---|
口口口口 |④---|
24
口口④口 |①---|
口口③口 |②---|
口口②口 |③---|
口口①口 |④---|
25
口口口口 |①---|
口口口口 |②---|
①②③④ |③---|
口口口口 |④---|
26
口口口口 |①---|
④③②① |②---|
口口口口 |③---|
口口口口 |④---|
27
②③③② |①---|
口口口口 |--②-|
口①①口 |----|
口口口口 |--③-|
28
口口口口 |----|
口①①口 |--①-|
口②②口 |----|
口口口口 |②---|
29
①①①① |①---|
口口②口 |----|
口口③口 |②---|
口口口口 |③---|
30
口口口口 |①---|
口④口口 |②---|
口③口口 |③---|
口②①口 |④---|
31
口口口口 |----|
口口口口 |----|
①口口口 |①---|
②口口口 |②---|
32
口口口口 |①---|
口口口口 |②---|
口口口④ |③---|
口①②③ |④---|
33
口①①口 |①---|
口口②口 |----|
口口③口 |②---|
口口口口 |③---|
34
口口口口 |①---|
口④口口 |②---|
口③口口 |③---|
口②①口 |④---|
35
①口口① |①---|
②口口② |--②-|
③口口③ |----|
口口口口 |③---|
36
口口口口 |----|
口口口口 |----|
口口口口 |----|
口口口口 |----|
37
口口口口 |①---|
口口口口 |--②-|
口②②口 |----|
口①①口
38
口②②口 |①---|
口①①口 |--②-|
口口口口 |----|
口口口口
39
口口口口 |----|
口口口口 |----|
口口口口 |----|
口口口口 |----|
40
③口口③ |①---|
口①①口 |----|
口①①口 |②---|
口②②口 |--③-|
41
口口口口 |----|
口②①口 |----|
口口口口 |①---|
口口口口 |②---|
42
口口口口 |①---|
口口口口 |②---|
口②①口 |③---|
口④③口 |④---|
43
口口口口 |①---|
①口口① |----|
口②②口 |②---|
口口口口 |----|
44
口口口口 |①---|
④③②① |②---|
口口口口 |③---|
口口口口 |④---|
45
口口口口 |①---|
口口口口 |②---|
①②③④ |③---|
口口口口 |④---|
46
③口口③ |①---|
口口口口 |----|
口②②口 |②---|
口①①口 |--③-|
47
口口口口 |--①-|
①口口① |--②-|
②口口② |--③-|
③口口③ |----|
48
③口口③ |①---|
口①①口 |----|
口①①口 |②---|
口②②口 |--③-|
49
口口口口 |----|
口②①口 |----|
口口口口 |①---|
口口口口 |②---|
50
口口口口 |①---|
口口口口 |②---|
口②①口 |③---|
口④③口 |④---|
51
口口口口 |①---|
①口口① |----|
口②②口 |②---|
口口口口 |----|
52
口口口口 |①---|
①②③④ |②---|
口口口口 |③---|
口口口口 |④---|
53
口口口口 |①---|
口口口口 |②---|
④③②① |③---|
口口口口 |④---|
54
③口口③ |①---|
口口口口 |----|
口②②口 |②---|
口①①口 |--③-|
55
口口口口 |--①-|
①口口① |--②-|
②口口② |--③-|
③口口③ |----|
56
③口口③ |①---|
口①①口 |----|
口①①口 |②---|
口②②口 |--③-|
57
口口口口 |----|
口口口口 |----|
口口口口 |----|
口口口口 |----|
58
口口口口 |①---|
口①①口 |----|
口口口口 |----|
口口口口 |----|
59
口口口口 |①---|
口口口口 |----|
口①①口 |----|
口口口口 |----|
60
口口口口 |①---|
口①①口 |----|
口口口口 |----|
口口口口 |----|
61
口口口口 |①---|
口口口口 |----|
口①①口 |----|
口口口口 |----|
62
口口口口 |①---|
口②①口 |②---|
口④③口 |③---|
口口口口 |④---|
63
口口口口 |①---|
④口口③ |②---|
②口口① |③---|
口口口口 |④---|
64
③口口③ |①---|
口①①口 |----|
口①①口 |②---|
口②②口 |--③-|
65
口口口口 |----|
口口口口 |----|
口口口口 |----|
口口口口 |----|
66
口口口口 |①---|
口①①口 |----|
口口口口 |----|
口口口口 |----|
67
口口口口 |①---|
口口口口 |----|
口①①口 |----|
口口口口 |----|
68
口口口口 |①---|
口①①口 |----|
口口口口 |----|
口口口口 |----|
69
口口口口 |①---|
口③②口 |----|
口①①口 |②---|
口口口口 |③---|
70
口口口口 |①---|
口口口口 |②---|
口②①口 |③---|
口④③口 |④---|
71
口口口口 |①---|
①口口① |----|
口口口口 |②---|
②口口② |----|
72
①①①① |①---|
口口口口 |----|
口口口口 |----|
口口口口 |----|
73
口口口口 |①---|
口②①口 |②---|
口④③口 |③---|
口口口口 |④---|
74
口口口口 |①---|
口口口口 |----|
口口口口 |----|
口口①口 |----|
75
②口口② |----|
口口口口 |----|
口口口口 |①---|
口①①口 |--②-|
76
②口口② |----|
口口口口 |----|
口口口口 |①---|
口①①口 |--②-|
77
口口口口 |----|
口口口口 |----|
口①①口 |①---|
口②②口 |②---|
78
①口口① |①---|
②口口② |--②-|
口口口口 |----|
口口口口
79
口口口口 |①---|
口口口口 |--②-|
①口口① |----|
②②②②
80
口口口口 |----|
口口口口 |----|
口口口口 |----|
口口口口 |----|
81
口③①口 |①---|
口④②口 |②---|
口口口口 |③---|
口口口口 |④---|
82
口口口口 |----|
口口口口 |----|
①②口口 |①---|
口口口口 |②---|
83
口口口口 |①---|
口口④③ |②---|
口口①② |③---|
口口口口 |④---|
84
口口口口 |①---|
②①口口 |②---|
口口口口 |----|
口口口口 |----|
85
口①③口 |①---|
口②④口 |②---|
口口口口 |③---|
口口口口 |④---|
86
口口口口 |----|
口口口口 |①---|
①口口① |----|
口②②口 |--②-|
87
口口口口 |----|
口②②口 |--①-|
口①①口 |----|
口口口口 |--②-|
88
口①①口 |----|
口口口口 |--①-|
口口口口 |----|
口口口口 |----|
89
口口口口 |①-②-|
⑥⑥⑤⑤ |--③-|
④④③③ |④---|
②②①① |⑤-⑥-|
90
②②①① |--①-|
口口口口 |②---|
口口口口 |----|
口口口口 |----|

不確定度: 0

最終更新:2016年07月27日 22:55