ぽかぽかレトロード
日向美ビタースイーツ♪

ADVANCED

Level: 7
BPM: 178
Notes: 469

1
口口口口 |----|
口口口口 |----|
口口口口 |----|
口口口口 |----|
2
口口口口 |①---|
③①①② |----|
⑤①①④ |②-③-|
口口口口 |④-⑤-|
3
口口口口 |----|
口②①口 |----|
口④③口 |①-②-|
口口口口 |③-④-|
4
①口口口 |--①-|
③口口② |②-③-|
⑤口口④ |④-⑤-|
⑦口口⑥ |⑥-⑦-|
5
口口口口 |①-②-|
口口口口 |③-④-|
口④③口 |----|
口②①口 |----|
6
②口口① |①---|
①④③② |②---|
口⑥⑤口 |③-④-|
口口口口 |⑤-⑥-|
7
口口口口 |----|
③口口② |①---|
⑤口口④ |②-③-|
口①①口 |④-⑤-|
8
口口口口 |--①-|
口⑥③口 |②-③-|
口⑤②口 |--④-|
口④①口 |⑤-⑥-|
9
③口口③ |--①-|
②⑤④② |②-③-|
①口口① |--④-|
口口口口 |⑤---|
10
口口口口 |①-②-|
④口口④ |--③-|
②③③② |④---|
口①①口
11
②④④② |①-②-|
口①①口 |--③-|
口口口口 |④---|
③口口③
12
口口口口 |----|
口①口口 |①---|
口②口口 |②---|
口口口口
13
口口④口 |①---|
①口口④ |----|
口口口口 |②-③-|
口③②口 |--④-|
14
口③口口 |----|
③口口口 |----|
口口口口 |①-②-|
口①②口 |--③-|
15
口口口口 |----|
口①口口 |----|
口口②口 |--①-|
口口口口 |--②-|
16
口口口口 |--①-|
口口口口 |----|
口口口口 |----|
口口口① |----|
17
口口④口 |①---|
①口口④ |----|
口口口口 |②-③-|
口③②口 |--④-|
18
口③口口 |----|
③口口口 |----|
口口口口 |①-②-|
口①②口 |--③-|
19
口口口口 |----|
口口口口 |--①-|
口①①口 |----|
口口口口 |----|
20
口口口口 |----|
口口口口 |----|
口口口口 |----|
口口口口 |----|
21
口④口口 |①---|
④口口① |----|
口口口口 |②-③-|
口②③口 |--④-|
22
口口③口 |----|
口口口③ |----|
口口口口 |①-②-|
口②①口 |--③-|
23
口口口口 |----|
口口①口 |--①-|
口②口口 |--②-|
③口口口 |--③-|
24
③口口口 |--①-|
②口口口 |--②-|
①口口口 |--③-|
口口口口 |----|
25
口④口口 |①---|
④口口① |----|
口口口口 |②-③-|
口②③口 |--④-|
26
口口③口 |----|
口口口③ |----|
口口口口 |①-②-|
口②①口 |--③-|
27
口口口口 |----|
口②②口 |--①-|
口①①口 |----|
口口口口 |--②-|
28
口②③口 |--①-|
②口口③ |②-③-|
④口口口 |----|
①④口① |④---|
29
口⑥⑥口 |①---|
⑤④③② |--②-|
口口口① |③-④-|
口口①口 |⑤-⑥-|
30
口口口口 |----|
口口口口 |①-②-|
①口口③ |--③-|
口②④口 |④---|
31
口⑤⑤口 |----|
口口口口 |--①-|
①②③④ |②-③-|
口口口口 |④-⑤-|
32
口口口口 |----|
口口口口 |①-②-|
口③③口 |--③-|
口①②口 |----|
33
口⑤⑤口 |----|
④③②① |--①-|
口口口口 |②-③-|
口口口口 |④-⑤-|
34
口口口口 |----|
口口口口 |①-②-|
①口口③ |--③-|
口②④口 |④---|
35
口③③口 |①---|
口②②口 |--②-|
口①①口 |----|
口口口口 |③---|
36
口口口口 |----|
口口口口 |----|
口口口口 |----|
口口口口 |----|
37
口口口口 |①---|
①口口① |--②-|
②口口② |----|
口口口口
38
②②②② |①---|
口口口口 |--②-|
口口口口 |----|
①口口①
39
口口口口 |----|
口口口口 |----|
口口口口 |--①-|
②口口① |②---|
40
④①①④ |①---|
①口口① |----|
口②口口 |②-③-|
口口③口 |--④-|
41
③口口③ |----|
口口口口 |----|
口口①口 |①-②-|
口②口口 |--③-|
42
口口口口 |----|
口②①口 |①-②-|
口④③口 |③-④-|
口⑥⑤口 |⑤-⑥-|
43
口口口口 |----|
口口口口 |----|
口①①口 |--①-|
口②②口 |②---|
44
②⑤⑤① |①---|
口口口口 |②---|
口③③口 |③-④-|
①④④② |--⑤-|
45
口⑤⑤口 |----|
口口口口 |--①-|
口口口口 |②-③-|
④③②① |④-⑤-|
46
口⑤口口 |--①-|
⑤①③口 |②---|
口口口口 |③-④-|
④口口② |--⑤-|
47
口口①口 |--①-|
口口口① |--②-|
②口口③ |--③-|
口②③口 |----|
48
①口口① |①---|
口口口口 |②---|
口口口口
②口口②

⑤⑤⑤⑤
口口口口
口口③口 |③-④-|
口④口口 |--⑤-|
49
口口③口 |----|
口口口③ |----|
口口口口 |①-②-|
②口口① |--③-|
50
口④口口 |----|
④口口口 |①---|
口口口口 |②-③-|
②①①③ |--④-|
51
口口口口 |----|
口口口口 |----|
口①①口 |--①-|
口②②口 |②---|
52
②⑤⑤① |①---|
口口口口 |②---|
口③③口 |③-④-|
①④④② |--⑤-|
53
口⑤⑤口 |----|
口口口口 |--①-|
口口口口 |②-③-|
①②③④ |④-⑤-|
54
⑥口口⑥ |--①-|
口②①口 |②-③-|
口④③口 |④-⑤-|
口口⑤口 |--⑥-|
55
口口口口 |--①-|
①口口① |--②-|
②口口② |--③-|
③口口③ |----|
56
口①①口 |①---|
口口口口 |②---|
口口口口
口②②口

⑤⑤⑤⑤
口口口口
口口口口 |③-④-|
④口口③ |--⑤-|
57
口口④口 |----|
口③口口 |①---|
①口②口 |②--③|
口口口口 |--④-|
58
口①口口 |①---|
口口口口 |----|
口②②口 |----|
口口口口 |--②-|
59
口口口口 |----|
口口口口 |----|
口口口口 |----|
口口口口 |----|
60
口口口口 |①---|
口①①口 |----|
口②②口 |----|
口口口口 |--②-|
61
口口口口 |----|
口口口口 |----|
口口口口 |----|
口口口口 |----|
62
口①口口 |--①-|
口③②口 |②-③-|
口⑤④口 |④-⑤-|
口⑦⑥口 |⑥-⑦-|
63
⑧口口⑦ |①-②-|
⑥口口⑤ |③-④-|
④口口③ |⑤-⑥-|
②口口① |⑦-⑧-|
64
⑤⑤⑤⑤ |①---|
口①①口 |②---|
口口口口 |③-④-|
④②②③ |--⑤-|
65
口口④口 |----|
口③口口 |①---|
①口②口 |②--③|
口口口口 |--④-|
66
口①口口 |①---|
口口口口 |----|
口②②口 |----|
口口口口 |--②-|
67
口口口口 |----|
口口口口 |----|
口口口口 |----|
口口口口 |----|
68
口②②口 |①---|
口①①口 |----|
口口口口 |--②-|
口③③口 |--③-|
69
口⑤⑤口 |----|
口口口口 |--①-|
④③②① |②-③-|
口口口口 |④-⑤-|
70
口⑥⑥口 |--①-|
①②③④ |②-③-|
口口口口 |④-⑤-|
口⑤⑤口 |--⑥-|
71
口口口口 |----|
口口口口 |----|
口口口口 |①---|
①口口① |----|
72
①①①① |①---|
口口口口 |----|
口口口口 |----|
口口口口 |----|
73
①口口① |--①-|
口③②口 |--②-|
口⑤④口 |③-④-|
口口⑥口 |⑤-⑥-|
74
口口口口 |----|
口口口口 |----|
口口口口 |----|
口口口口 |----|
75
口④④口 |----|
口口①口 |--①-|
口②口口 |②-③-|
口口③口 |--④-|
76
口口口口 |----|
口②②口 |----|
口③③口 |①---|
①口口① |②-③-|
77
口①②口 |--①-|
①⑥⑥② |--②-|
③⑤⑤④ |③-④-|
口③④口 |⑤-⑥-|
78
①口口① |①---|
②口口② |--②-|
口口口口 |----|
口口口口
79
口口口口 |①---|
口口口口 |--②-|
①口口① |----|
②②②②
80
口口口口 |----|
口口口口 |----|
口口口口 |----|
口口口口 |----|
81
②口口① |①---|
④口口③ |②---|
⑥口口⑤ |③-④-|
①口口② |⑤-⑥-|
82
口口口口 |----|
口③②口 |①---|
口⑤④口 |②-③-|
口①①口 |④-⑤-|
83
①口口口 |--①-|
③口口② |②-③-|
⑤口口④ |④-⑤-|
⑦口口⑥ |⑥-⑦-|
84
口口口口 |①-②-|
口口口口 |③-④-|
口④③口 |----|
口②①口 |----|
85
②口口① |①---|
①④③② |②---|
口⑥⑤口 |③-④-|
口口口口 |⑤-⑥-|
86
口口口口 |----|
③口口② |①---|
⑤口口④ |②-③-|
口①①口 |④-⑤-|
87
口口口口 |--①-|
口⑥③口 |②-③-|
口⑤②口 |--④-|
口④①口 |⑤-⑥-|
88
③口口③ |--①-|
②⑤④② |②-③-|
①口口① |--④-|
口口口口 |⑤---|
89
⑥口口⑥ |①-②-|
④⑤⑤④ |--③-|
②③③② |④---|
口①①口 |⑤-⑥-|
90
口②②口 |--①-|
口口口口 |②---|
口口口口 |----|
①口口① |----|

不確定度: 0

最終更新:2016年07月27日 22:55