Theory of Eternity
TAG

ADVANCED

Level: 8
BPM: 160
Notes: 725

1
口口口口 |----|
口口口口 |----|
口口口口 |----|
口口口口 |----|
2
口口口口 |①-②-|
口⑥口⑧ |③-④-|
口②⑦④ |⑤-⑥-|
①⑤③口 |⑦-⑧-|
3
口②⑤④ |①-②-|
口⑥③口 |③-④-|
口⑦口口 |⑤-⑥-|
⑧口①口 |⑦-⑧-|
4
口口口口 |①-②-|
⑧口⑥口 |③-④-|
④⑦②口 |⑤-⑥-|
口③⑤① |⑦-⑧-|
5
④⑤②口 |①-②-|
口③⑥口 |③-④-|
口口⑦口 |⑤-⑥-|
口①口⑧ |⑦-⑧-|
6
口口口口 |①-②-|
口⑥口⑧ |③-④-|
①②⑦④ |⑤-⑥-|
①⑤③口 |⑦-⑧-|
7
口②⑤④ |①-②-|
口⑥③口 |③-④-|
口⑦口口 |⑤-⑥-|
⑧口①口 |⑦-⑧-|
8
口口口口 |①-②-|
⑧口⑥口 |③-④-|
④⑦②口 |⑤-⑥-|
口③⑤① |⑦-⑧-|
9
①口口① |①-②-|
口⑤⑥口 |----|
②③③② |--③-|
口④④口 |④-⑤⑥|
10
①③③① |①-②-|
②口口口 |③---|
口⑤⑤④ |④-⑤-|
口口⑥口 |--⑥-|
11
口口口口 |①---|
①③①③ |②-③-|
②口口口
口口口口

口口口口
⑥口⑥口
口⑤口⑤ |--④-|
④口④口 |⑤-⑥-|
12
口②②口 |--①-|
口④④① |②---|
③口口口 |③-④-|
口口口⑤ |--⑤-|
13
①②②① |①---|
③口③口 |--②-|
口④口④ |--③-|
⑤口⑤口 |④-⑤-|
14
口②②口 |--①-|
口口口口 |②---|
①④④③ |③-④-|
⑤口口口 |--⑤-|
15
口③③口 |①---|
口①①口 |②-③-|
口口口②
口口口口

口口口口
口⑥口⑥
⑤口⑤口 |--④-|
口④口④ |⑤-⑥-|
16
②口口② |--①-|
④口口④ |②---|
口①口① |③-④-|
口③口③ |----|
17
①①①① |①---|
②②②② |--②-|
口口口口
口口口口

⑤口⑤口
口口口口
口④口④ |--③-|
③口③口 |④-⑤-|
18
口口口口 |--①-|
①口口① |②---|
②③②③ |③--④|
④⑤⑤④ |--⑤-|
19
①②③① |--①-|
口④⑤口 |----|
口⑥⑦口 |②③④⑤|
口⑧⑨口 |⑥⑦⑧⑨|
20
③④③④ |--①-|
①口口① |②---|
口口口口 |③--④|
②⑤⑤② |--⑤-|
21
②口口口 |--①-|
①③口① |----|
口口④口 |②-③-|
口口口⑤ |④-⑤-|
22
口口口口 |--①-|
①口口① |②---|
③②③② |③--④|
④⑤⑤④ |--⑤-|
23
①②③① |--①-|
口④⑤口 |----|
口⑥⑦口 |②③④⑤|
口⑧⑨口 |⑥⑦⑧⑨|
24
③④③④ |--①-|
①口口① |②---|
⑤⑥⑤⑥ |③-④-|
②口口② |⑤-⑥-|
25
口口③③ |①-②-|
②口口② |----|
口口口口 |--③-|
口①①口 |----|
26
①④④口 |①-②-|
②③②③ |③---|
①⑤⑤口 |④--⑤|
⑥口口⑥ |--⑥-|
27
①②③① |--①-|
口④⑤口 |----|
口⑥⑦口 |②③④⑤|
口⑧⑨口 |⑥⑦⑧⑨|
28
③④③④ |--①-|
①口口① |②---|
②口口② |③--④|
⑤口口⑤ |--⑤-|
29
⑩⑧⑨⑪ |--①-|
①⑥⑦① |--②③|
口④⑤口 |④⑤⑥⑦|
口②③口 |⑧⑨⑩⑪|
30
口口口口 |--①-|
③④③④ |②---|
①⑤⑤① |③--④|
②口口② |--⑤-|
31
①②③① |--①-|
口④⑤口 |----|
口⑥⑦口 |②③④⑤|
口⑧⑨口 |⑥⑦⑧⑨|
32
③④③④ |--①-|
⑤⑥⑤⑥ |②---|
①口口① |③-④-|
②口口② |⑤-⑥-|
33
口口口口 |①-②-|
口口口口 |----|
口①①口
②口口②

口③④口
⑤口口⑥
⑦⑨⑩⑧ |③④⑤⑥|
口口口口 |⑦⑧⑨⑩|
34
口口口⑥ |①-②-|
⑤④口⑨ |③-④⑤|
⑧⑦口口 |-⑥-⑦|
口①②③ |⑧-⑨-|
35
③②①口 |①-②-|
⑥口⑦⑧ |③-④⑤|
⑨口④⑤ |-⑥-⑦|
口口口口 |⑧-⑨-|
36
口口口⑥ |①-②-|
⑤④口⑨ |③-④⑤|
⑧⑦口口 |-⑥-⑦|
口①②③ |⑧-⑨-|
37
⑪①②⑪ |①②③④|
⑤③④口 |⑤-⑥⑦|
口⑩⑩口 |-⑧⑨-|
⑨⑧⑥⑦ |⑩-⑪-|
38
口口口口 |①-②-|
③②①口 |③-④⑤|
⑥口⑦⑧ |-⑥-⑦|
⑨口④⑤ |⑧-⑨-|
39
口①②③ |①-②-|
⑤④口口 |③-④⑤|
⑧⑦口⑥ |-⑥-⑦|
口口口⑨ |⑧-⑨-|
40
③②①口 |①-②-|
口⑨④⑤ |③-④⑤|
⑥口⑦⑧ |-⑥-⑦|
口口口口 |⑧-⑨-|
41
⑥①①⑥ |①--②|
②口口② |--③-|
④⑤④⑤ |-④--|
③口口③ |⑤-⑥-|
42
口④口口 |--①②|
口①②③ |③-④-|
口口口口
口口口口

口口口口
口⑩口口
⑥⑤⑨⑦ |⑤⑥-⑦|
口⑧口口 |-⑧⑨⑩|
43
口①②③ |--①②|
⑦⑩⑥⑤ |③-④-|
④口⑨口 |⑤⑥-⑦|
口⑧口口 |-⑧⑨⑩|
44
③②①口 |--①②|
⑦⑩⑤⑥ |③-④-|
④口⑨口 |⑤⑥-⑦|
口⑧口口 |-⑧⑨⑩|
45
口①②③ |--①②|
⑧⑦⑤⑥ |③-④-|
④⑨⑨口 |⑤⑥-⑦|
口口口口 |⑧-⑨-|
46
口口⑩口 |--①②|
⑦⑨⑤⑥ |③-④-|
④口⑧口 |⑤⑥-⑦|
口①②③ |-⑧⑨⑩|
47
口口⑩口 |--①②|
口⑨口⑦ |③-④-|
⑥⑤⑧④ |⑤⑥-⑦|
③②①口 |-⑧⑨⑩|
48
口口⑩口 |--①②|
⑦⑨⑤⑥ |③-④-|
④口⑧口 |⑤⑥-⑦|
口①②③ |-⑧⑨⑩|
49
①口口① |①--②|
口口口口 |--③-|
②口口②
③口③口

⑥口口⑥
口口口口
口⑤⑤口 |-④--|
口④口④ |⑤-⑥-|
50
口口口口 |--①-|
①②①② |②---|
⑤口⑤口 |③--④|
③④③④ |--⑤-|
51
②①②① |--①-|
口⑤口⑤ |②---|
④③④③ |③--④|
口口口口 |--⑤-|
52
⑤③⑤③ |--①-|
①口①口 |②---|
④口④口 |③--④|
口②口② |--⑤-|
53
口口口口 |--①-|
口①口① |②---|
口口口口
②口②口

口口口口
③⑤③⑤
口口口口 |③--④|
口④口④ |--⑤-|
54
①口口① |--①-|
口口口口 |②---|
②口口②
口口口口

⑤③③⑤
口口口口
口④④口 |③--④|
口口口口 |--⑤-|
55
口口口口 |--①-|
口①①口 |②---|
②口口②
口口口口

口口口口
③⑤⑤③
口④④口 |③--④|
口口口口 |--⑤-|
56
③①②④ |①②③④|
⑤⑮⑯⑥ |⑤⑥⑦⑧|
⑦⑬⑭⑧ |⑨⑩⑪⑫|
⑨⑪⑫⑩ |⑬⑭⑮⑯|
57
口①②③ |①②③-----|
口口口口 |----|
口口口口 |----|
口口口口 |----|
58
口口口⑥ |①-②-|
⑤④口⑨ |③-④⑤|
⑧⑦口口 |-⑥-⑦|
①①②③ |⑧-⑨-|
59
③②①口 |①-②-|
⑥口⑦⑧ |③-④⑤|
⑨口④⑤ |-⑥-⑦|
口口口口 |⑧-⑨-|
60
口口口⑥ |①-②-|
⑤④口⑨ |③-④⑤|
⑧⑦口口 |-⑥-⑦|
口①②③ |⑧-⑨-|
61
⑪①②⑪ |①②③④|
⑤③④口 |⑤-⑥⑦|
口⑩⑩口 |-⑧⑨-|
⑨⑧⑥⑦ |⑩-⑪-|
62
口口口口 |①-②-|
③②①口 |③-④⑤|
⑥口⑦⑧ |-⑥-⑦|
⑨口④⑤ |⑧-⑨-|
63
口①②③ |①-②-|
⑤④口口 |③-④⑤|
⑧⑦口⑥ |-⑥-⑦|
口口口⑨ |⑧-⑨-|
64
③②①口 |①-②-|
口⑨④⑤ |③-④⑤|
⑥口⑦⑧ |-⑥-⑦|
口口口口 |⑧-⑨-|
65
口①①口 |①--②|
②口口② |--③-|
口口口口
③口口③

口⑥⑥口
口⑤⑤口
④口口④ |-④--|
口口口口 |⑤-⑥-|
66
①口口① |----|
⑤口③④ |①-②-|
②①①口 |③④-⑤|
⑧⑦⑥口 |-⑥⑦⑧|
67
口①②③ |--①②|
⑦⑩⑥⑤ |③-④-|
④口⑨口 |⑤⑥-⑦|
口⑧口口 |-⑧⑨⑩|
68
③②①口 |--①②|
⑦⑩⑤⑥ |③-④-|
④口⑨口 |⑤⑥-⑦|
口⑧口口 |-⑧⑨⑩|
69
口①②③ |--①②|
⑧⑦⑤⑥ |③-④-|
④⑨⑨口 |⑤⑥-⑦|
口口口口 |⑧-⑨-|
70
口口⑩口 |--①②|
⑦⑨⑤⑥ |③-④-|
④口⑧口 |⑤⑥-⑦|
口①②③ |-⑧⑨⑩|
71
口口⑩口 |--①②|
口⑨口⑦ |③-④-|
⑥⑤⑧④ |⑤⑥-⑦|
③②①口 |-⑧⑨⑩|
72
口口⑩口 |--①②|
⑦⑨⑤⑥ |③-④-|
④口⑧口 |⑤⑥-⑦|
口①②③ |-⑧⑨⑩|
73
①口口① |①--②|
口⑤⑤口 |--③-|
②⑥⑥② |-④--|
③④③④ |⑤-⑥-|
74
口口口口 |--①-|
①口口① |②---|
②口口②
口口口口

口③③口
⑤口口⑤
口口口口 |③-④-|
口④④口 |--⑤-|
75
③口口③ |①---|
口②②口 |②-③-|
口口口口 |----|
①口口① |----|


不确定度: 0

タグ:

+ タグ編集
  • タグ:

このサイトはreCAPTCHAによって保護されており、Googleの プライバシーポリシー利用規約 が適用されます。

最終更新:2012年11月10日 14:07