ぽかぽかレトロード
日向美ビタースイーツ♪

EXTREME

Level: 9
BPM: 178
Notes: 741

1
口口口口 |----|
口口口口 |----|
口口口口 |----|
口口口口 |----|
2
①口口① |①---|
①口口① |----|
口口口口
口口口口

口③口⑤
口③口⑤
口口口口 |②-③-|
②口④口 |④-⑤-|
3
口口口口 |----|
②口④口 |①---|
口①①口 |②-③-|
口③口⑤ |④-⑤-|
4
口③②口 |--①-|
④口口① |②-③-|
⑤口口口 |④-⑤-|
口⑥⑦口 |⑥-⑦-|
5
口④③口 |①-②-|
口口口② |③-④-|
口口口①
口口口口

口口口口
口口口口
⑤⑥⑦⑧ |----|
口口口口 |⑤⑥⑦⑧|
6
口④口⑥ |①---|
①④②⑥ |②---|
口口口口 |③-④-|
③①⑤② |⑤-⑥-|
7
口口口口 |----|
②口④口 |①---|
口①①⑤ |②-③-|
口③口⑤ |④-⑤-|
8
⑥口口口 |--①-|
⑥②④口 |②-③-|
③口口口 |--④-|
③⑤①口 |⑤-⑥-|
9
口口口③ |--①-|
口①④③ |②-③-|
口口口口 |--④-|
口⑤②口 |⑤---|
10
口口口③ |①-②-|
①④④口 |--③-|
口②②③ |④---|
①口口口
11
②④②④ |①-②-|
③口口① |--③-|
口口口④ |④---|
③口③①
12
口口口口 |----|
口①口口 |①-②-|
口口②口 |③---|
口③③口
13
口①①口 |①---|
口口口口 |----|
口口口口
口口口口

口口④口
口口口④
口口口口 |②-③-|
③口口② |--④-|
14
口③口口 |----|
③口口口 |----|
口口口口 |①-②-|
①口口② |--③-|
15
口②①口 |----|
口口口口 |----|
口口口口 |--①-|
①口口② |--②-|
16
口口口④ |--①-|
⑤②⑥口 |②--③|
口①①③ |④-⑤-|
口⑥口口 |⑥---|
17
口①①口 |①---|
口口口口 |----|
口口口口
口口口口

口口④口
口口口④
口口口口 |②-③-|
③口口② |--④-|
18
口③口口 |----|
③口口口 |----|
口口口口 |①-②-|
①口口② |--③-|
19
⑤口④⑤ |①-②-|
口③口① |③-④-|
④口②口 |----|
口④口口 |--⑤-|
20
口口口⑤ |--①-|
①口口口 |②-③-|
口⑥④② |----|
③口口口 |④⑤-⑥|
21
①④口口 |①---|
④口口口 |----|
口口口口 |②-③-|
②口口③ |--④-|
22
口口③口 |----|
口口口③ |----|
口口口口 |①-②-|
②口口① |--③-|
23
①口口② |----|
口口口口 |--①-|
口口口口 |--②-|
口②①③ |--③-|
24
③③③③ |--①-|
口②②② |--②-|
口口①① |--③-|
口口口口 |----|
25
口④口口 |①---|
④口口口 |----|
口①①口 |②-③-|
②口口③ |--④-|
26
口口③口 |----|
口口口③ |----|
口口口口 |①-②-|
②口口① |--③-|
27
⑤④口⑤ |①-②-|
①口③口 |③-④-|
口②口④ |----|
口口④口 |--⑤-|
28
口④口口 |--①-|
④④口口 |②-③-|
②②③③ |----|
①②③① |④---|
29
⑥口①⑥ |①---|
口口①① |--②-|
②口④口 |③-④-|
口③口⑤ |⑤-⑥-|
30
口口口口 |----|
④口③口 |①-②-|
口①口② |--③-|
①④②③ |④---|
31
⑥①①② |①---|
⑥③口口 |--②-|
口口④口 |③-④-|
⑤口口口 |⑤-⑥-|
32
口②①② |----|
口口①口 |①-②-|
④⑤⑥⑦ |--③-|
③口③口 |④⑤⑥⑦|
33
③口口③ |①-②-|
①④②⑤ |③-④-|
口⑥⑧⑦ |⑤-⑥-|
口①⑧② |⑦-⑧-|
34
②③④① |----|
③口口口 |①-②-|
④口口口 |--③-|
①口口② |④---|
35
口口口口 |①---|
口①②① |②-③-|
口③口③ |----|
口④④④ |④---|
36
口⑥②① |--①-|
口③④口 |②③-④|
⑧⑤口⑦ |⑤-⑥-|
⑩口口⑨ |⑦⑧⑨⑩|
37
②口口① |①---|
①口口② |--②-|
口②①口 |----|
口口口口
38
口②口口 |①---|
口①口口 |--②-|
②口口口 |----|
①口①②
39
④⑬⑬③ |①②③④|
②口口① |⑤⑥⑦⑧|
⑩⑥⑤⑨ |⑨⑩⑪⑫|
⑫⑧⑦⑪ |⑬---|
40
①口口① |①---|
①口口① |②---|
口②②口
口②②口

⑤④⑤口
口口④口
口口口口 |③-④-|
③口口③ |--⑤-|
41
口④口③ |--①-|
口⑤⑤⑤ |②---|
①③口④ |③-④-|
口②口口 |--⑤-|
42
①⑥⑥⑤ |----|
①口口⑤ |①-②-|
②口口④ |③-④-|
②③③④ |⑤-⑥-|
43
③口⑤口 |--①-|
口口①⑤ |②-③-|
口②④口 |--④-|
口④口口 |⑤---|
44
⑤①⑤① |①---|
口③口④ |②---|
⑤口③口 |③-④-|
②④②④ |--⑤-|
45
口口口③ |--①-|
口⑦口④ |②-③-|
口①口⑤ |④-⑤-|
口⑥②口 |⑥-⑦-|
46
④口口③ |--①-|
口口②口 |②---|
⑤⑤口口 |③-④-|
③⑤①④ |--⑤-|
47
口②③口 |--①-|
②②③③ |--②-|
口口①① |--③-|
口口①口 |----|
48
①口口① |①---|
口口口口 |②---|
①口口①
②口口②

⑤⑤⑤⑤
口④③口
口口口口 |③-④-|
口③④口 |--⑤-|
49
口⑤口⑤ |--①-|
口口④口 |②---|
②④③① |③-④-|
口口口③ |--⑤-|
50
口④④口 |----|
②口③口 |①---|
④口口④ |②-③-|
①②①③ |--④-|
51
口⑤口③ |--①-|
⑤①口口 |②-③-|
口④②口 |--④-|
口口④口 |⑤---|
52
①⑤①⑤ |①---|
④口③口 |②---|
口③口⑤ |③-④-|
④②④② |--⑤-|
53
③口口口 |--①-|
④口口⑦ |②-③-|
⑤口①口 |④-⑤-|
口②口⑥ |⑥-⑦-|
54
⑥⑤③⑤ |--①-|
⑥②口口 |②-③-|
⑥口①口 |④-⑤-|
④口④口 |--⑥-|
55
口口口③ |--①-|
口①②③ |--②-|
口①②③ |--③-|
口①②口 |----|
56
①口①口 |①---|
口①口口 |②---|
口口②口
口②口②

⑤⑤⑤⑤
④口口③
③口口④ |③-④-|
口口口口 |--⑤-|
57
口口口口 |----|
口口④口 |①---|
口③口口 |②--③|
②口口① |--④-|
58
④①口③ |①---|
①口口口 |②---|
口口②口 |③-④-|
口⑤⑤② |--⑤-|
59
口①②③ |--①-|
⑤口口⑦ |②-③-|
④口口⑥ |④-⑤-|
口口口口 |⑥-⑦-|
60
①口⑤② |①---|
④口口⑤ |②---|
③口口口 |③-④-|
②③④① |--⑤-|
61
④口口④ |--①-|
口①口口 |②-③-|
口②口口 |--④-|
口③口口 |----|
62
⑦口③⑪ |--①②|
⑧①④⑫ |③④⑤⑥|
⑨②⑤⑬ |⑦⑧⑨⑩|
⑩口⑥⑭ |⑪⑫⑬⑭|
63
⑫①⑤⑯ |①②③④|
⑪②⑥⑮ |⑤⑥⑦⑧|
⑩③⑦⑭ |⑨⑩⑪⑫|
⑨④⑧⑬ |⑬⑭⑮⑯|
64
⑤⑤⑤⑤ |①---|
口①②口 |②---|
③①②④ |③-④-|
口③④口 |--⑤-|
65
口口口口 |----|
口口④口 |①---|
口③口口 |②--③|
②口口① |--④-|
66
④①口③ |①---|
①口口口 |②---|
口口②口 |③-④-|
口⑤⑤② |--⑤-|
67
口①②③ |--①-|
⑤口口⑦ |②-③-|
④口口⑥ |④-⑤-|
口口口口 |⑥-⑦-|
68
①口⑤② |①---|
④口口⑤ |②---|
③口口口 |③-④-|
②③④① |--⑤-|
69
口⑦⑦③ |--①-|
④①口口 |②-③-|
口②口⑤ |④-⑤-|
⑥③口口 |⑥-⑦-|
70
口⑥⑥口 |--①-|
口①口⑤ |②-③-|
口口②口 |④-⑤-|
口③口④ |--⑥-|
71
口口口口 |----|
口口口口 |----|
口口口口 |①---|
口①①口 |----|
72
①①①① |①---|
③④口⑤ |②---|
④③口⑤ |③-④-|
②口口② |--⑤-|
73
①口①② |--①-|
口③口⑥ |--②-|
口口④口 |③-④-|
⑤口口⑥ |⑤-⑥-|
74
②②②② |①---|
③④口⑤ |②---|
④③口⑤ |③-④-|
口①①口 |--⑤-|
75
口④口④ |----|
口口①口 |--①-|
口②口口 |②-③-|
口口③口 |--④-|
76
④口口④ |----|
①②②① |①---|
①口口① |②---|
③口口③ |③-④-|
77
⑥③④⑥ |--①-|
③③④④ |--②-|
①①②② |③-④-|
⑤①②⑤ |⑤-⑥-|
78
口口口口 |①---|
②口口口 |--②-|
口①口② |----|
口①②口
79
①②②口 |①---|
口②口② |--②-|
②②①口 |----|
②②口①
80
①②③④ |----|
口口口口 |----|
⑤⑥⑦⑧ |①②③④|
口口口口 |⑤⑥⑦⑧|
81
口④口⑥ |①---|
①④②⑥ |②---|
口口口口 |③-④-|
③①⑤② |⑤-⑥-|
82
口口口口 |----|
②口④口 |①---|
口①①口 |②-③-|
口③口⑤ |④-⑤-|
83
口③②口 |--①-|
④口口① |②-③-|
⑤口口口 |④-⑤-|
口⑥⑦口 |⑥-⑦-|
84
口④③口 |①-②-|
口口口② |③-④-|
口口口①
口口口口

口口口口
口口口口
⑤⑥⑦⑧ |----|
口口口口 |⑤⑥⑦⑧|
85
口④口⑥ |①---|
①④②⑥ |②---|
口口口口 |③-④-|
③①⑤② |⑤-⑥-|
86
口口口口 |----|
②口④口 |①---|
口①①⑤ |②-③-|
口③口⑤ |④-⑤-|
87
⑥口口口 |--①-|
⑥②④口 |②-③-|
③口口口 |--④-|
③⑤①口 |⑤-⑥-|
88
口口口③ |--①-|
口①④③ |②-③-|
口口口口 |--④-|
口⑤②口 |⑤---|
89
⑥口⑥③ |①-②-|
①④④⑤ |--③-|
口②②③ |④---|
①口口⑤ |⑤-⑥-|
90
口②口② |--①-|
①口口口 |②---|
口口口② |----|
①口①口 |----|

不確定度: 0

最終更新:2016年07月27日 22:55