完全無欠の無重力ダイブ
日向美ビタースイーツ♪

ADVANCED

Level: 5
BPM: 122
Notes: 397

1
口口口口 |----|
口口口口 |----|
口口口口 |----|
口口口口 |----|
2
口口③口 |①--②|
②口③口 |--③-|
②口口① |----|
口口口① |----|
3
口③口口 |①--②|
口③口② |--③-|
①口口② |----|
①口口口 |----|
4
口口③口 |①--②|
②口③口 |--③-|
②口口① |----|
口口口① |----|
5
口③口口 |①--②|
口③口② |--③-|
①口口② |----|
①口口口 |----|
6
③③口口 |①--②|
口口口口 |--③-|
口口②② |----|
①①口口 |----|
7
口口③③ |①--②|
口口口口 |--③-|
②②口口 |----|
口口①① |----|
8
③③口口 |①--②|
口口口口 |--③-|
口口②② |----|
①①口口 |----|
9
口口③③ |①--②|
口口口口 |--③-|
②②口口 |----|
口口①① |----|
10
口③口口 |①--②|
①口③② |--③-|
①口口② |----|
口口口口 |----|
11
口口③口 |①--②|
②③口① |--③-|
②口口① |----|
口口口口 |----|
12
口③口口 |①--②|
①口③② |--③-|
①口口② |----|
口口口口 |----|
13
口口③口 |①--②|
②③口① |--③-|
②口口① |----|
口口口口 |----|
14
口口①① |----|
口口口⑤ |①---|
②③④⑤ |②-③-|
口口口口 |④-⑤-|
15
口口③口 |--①-|
①④口口 |--②-|
①口⑤口 |--③-|
口②②口 |④-⑤-|
16
口②口口 |--①-|
①③口① |----|
口④口口 |--②-|
口口口口 |③-④-|
17
③口①口 |--①-|
④口②口 |②-③-|
口口口口 |④---|
口口口口 |----|
18
①①口口 |----|
⑤口口口 |①---|
⑤④③② |②-③-|
口口口口 |④-⑤-|
19
口口口④ |--①-|
口②②① |--②-|
口口口① |③---|
口③③口 |--④-|
20
①口口口 |--①-|
口③②口 |----|
口口④口 |--②-|
口口口口 |③-④-|
21
口口口口 |--①-|
口口口口 |②-③-|
口③④口 |④---|
口①②口 |----|
22
①口口口 |①-②-|
②口口口 |③-④-|
③口⑦口 |⑤-⑥-|
④⑤⑥口 |--⑦-|
23
口口口口 |①-②-|
口③②⑥ |③-④-|
⑤①口④ |⑤-⑥-|
口口口口 |----|
24
①②③④ |①-②-|
口口口⑤ |③-④-|
口⑦口⑥ |⑤-⑥-|
口口口口 |--⑦-|
25
口口口口 |①-②-|
⑥①②⑥ |③-④-|
⑤口③⑤ |⑤---|
口口④口 |⑥---|
26
口④⑤口 |①-②-|
口③⑥口 |③-④-|
口②口口 |⑤-⑥-|
口①口⑦ |--⑦-|
27
口口口口 |①-②-|
口口口口 |③-④-|
④⑤⑥口 |⑤-⑥-|
③②①口 |----|
28
②口口① |①-②-|
④口⑦③ |③-④-|
⑥口口⑤ |⑤-⑥-|
口口口口 |--⑦-|
29
④④④④ |①---|
③③③口 |②---|
②②口口 |③---|
①口口口 |④---|
30
口口口口 |①---|
④④口② |----|
口口③口 |--②-|
①①①① |③-④-|
31
口口口口 |----|
①口③③ |----|
口②口口 |--①-|
口口口口 |②-③-|
32
⑦①口⑦ |①-②-|
⑥②口⑥ |③-④-|
⑤口③⑤ |⑤--⑥|
口口④口 |--⑦-|
33
口①①口 |----|
口②③口 |--①-|
口④口口 |--②-|
口口口口 |③-④-|
34
⑥口口⑥ |①---|
②口⑤② |②---|
口④①口 |③-④-|
口口③口 |⑤-⑥-|
35
口口口口 |--①-|
口①口口 |②-③-|
口口②口 |----|
口③③口 |----|
36
①口口① |①--②|
⑧②③⑧ |③-④-|
口⑦④口 |⑤-⑥-|
口⑥⑤口 |⑦-⑧-|
37
口⑤⑥口 |--①-|
口⑥⑤口 |②-③-|
④④③③ |④---|
②②①① |⑤-⑥-|
38
①口口① |①---|
①口口① |----|
口口口口
口口口口

口口口口
口口口⑤
②③④⑤ |②-③-|
口口口口 |④-⑤-|
39
口①口口 |--①-|
口口②口 |②-③-|
口③口口 |④-⑤-|
口⑤④口 |----|
40
③口口⑥ |①-②-|
②⑦⑦⑤ |③---|
①口口④ |④-⑤-|
口口口口 |⑥-⑦-|
41
口⑤⑥口 |--①-|
口⑥⑤口 |②---|
②口口④ |③-④-|
①口口③ |⑤-⑥-|
42
①口口① |①---|
①口口① |----|
口口口口
口口口口

口口口口
⑤口口口
⑤④③② |②-③-|
口口口口 |④-⑤-|
43
口口①口 |--①-|
口②口口 |②-③-|
口口③口 |④-⑤-|
口④⑤口 |----|
44
⑥口口③ |①-②-|
⑤⑦⑦② |③---|
④口口① |④-⑤-|
口口口口 |⑥-⑦-|
45
口④⑤口 |--①-|
口⑤④口 |②---|
口②①口 |③---|
口③③口 |④-⑤-|
46
①口口① |①---|
①口口① |----|
口口口口
口口口口

口口口口
口口口⑤
②③④⑤ |②-③-|
口口口口 |④-⑤-|
47
口①口口 |--①-|
口口②口 |②-③-|
口③口口 |④-⑤-|
口⑤④口 |----|
48
③口口口 |①-②-|
②⑥⑥⑤ |③---|
①口口④ |④-⑤-|
口口口口 |--⑥-|
49
口⑤⑥口 |--①-|
口⑥⑤口 |②---|
②口口④ |③-④-|
①口口③ |⑤-⑥-|
50
①口口① |①---|
①口口① |----|
口口口口
口口口口

口口口口
⑤口口口
⑤④③② |②-③-|
口口口口 |④-⑤-|
51
口口①口 |--①-|
口②口口 |②-③-|
口口③口 |④-⑤-|
口④⑤口 |----|
52
口口口③ |①-②-|
⑤⑥⑥② |③---|
④口口① |④-⑤-|
口口口口 |--⑥-|
53
口口口口 |--①-|
⑥⑤④③ |②---|
口②①口 |③-④-|
口口口口 |⑤-⑥-|
54
口口口口 |----|
口口口口 |----|
①②③口 |--①-|
口口口口 |②-③-|
55
口口口口 |----|
口口口口 |----|
口口口口 |----|
口口口口 |----|
56
口口③口 |①--②|
②口③口 |--③-|
②口口① |----|
口口口① |----|
57
口③口口 |①--②|
口③口② |--③-|
①口口② |----|
①口口口 |----|
58
③③口口 |①--②|
口口口口 |--③-|
口口②② |----|
①①口口 |----|
59
口口③③ |①--②|
口口口口 |--③-|
②②口口 |----|
口口①① |----|
60
③③口口 |①--②|
口口口口 |--③-|
口口②② |----|
①①口口 |----|
61
口口口口 |①--②|
口①①口 |--③-|
口②②口 |----|
口③③口 |----|
62
口口口口 |①②-③|
口①②口 |④-⑤⑥|
口③④口 |----|
口⑤⑥口 |----|

不確定度: 0

最終更新:2016年07月27日 22:52