完全無欠の無重力ダイブ
日向美ビタースイーツ♪

EXTREME

Level: 8
BPM: 122
Notes: 625

1
口口口口 |----|
口口口口 |----|
口口口口 |----|
口口口口 |----|
2
③口口⑤ |①--②|
口口②口 |③-④-|
口④口口 |⑤---|
⑥①①① |⑥---|
3
③口口⑤ |①--②|
口口②口 |③-④-|
口④口口 |⑤---|
⑥①口① |⑥---|
4
③口口⑤ |①--②|
口口②口 |③-④-|
口④口口 |⑤---|
⑥①口① |⑥---|
5
③口②口 |①--②|
口③口② |--③-|
口口口口
口①①①

口口口④
⑦口口口
口⑤⑥口 |-④⑤⑥|
口⑨⑧口 |⑦⑧⑨-|
6
③①①口 |①--②|
⑦④④⑦ |③-④-|
②口口口 |-⑤⑥-|
口⑥⑤口 |⑦---|
7
口①①③ |①--②|
⑦④④⑦ |③-④-|
口口口② |-⑤⑥-|
口⑤⑥口 |⑦---|
8
③①①口 |①--②|
⑦④④⑦ |③-④-|
②口口口 |-⑤⑥-|
口⑥⑤口 |⑦---|
9
口①①③ |①--②|
⑦④④⑦ |③-④-|
口口口② |-⑤⑥-|
口⑤⑥口 |⑦---|
10
①口③① |①--②|
口口口口 |③-④-|
口口②口
口④④口

口⑥口口
口口口口
⑦⑤⑧⑦ |-⑤⑥-|
口口口口 |⑦-⑧-|
11
①③口① |①--②|
口口口口 |③-④-|
口②口口
口④④口

口⑧⑥口
口口⑨口
⑦口⑤⑦ |-⑤⑥-|
口口口口 |⑦-⑧⑨|
12
①口③① |①--②|
口口口口 |③-④-|
口口②口
口④④口

口⑥口口
口口口口
⑦⑤⑧⑦ |-⑤⑥-|
口口口口 |⑦-⑧-|
13
口口口口 |①--②|
①口口① |③④⑤-|
口口口口
⑤③②④

⑥口口⑦
⑩口口口
口⑧⑨口 |⑥⑦⑧⑨|
口⑫⑪口 |⑩⑪⑫-|
14
口口口② |①---|
口①①口 |②---|
①口口①
口口口口

③⑥口口
口口④口
⑤口口口 |③-④-|
口口⑥口 |⑤-⑥-|
15
②口③① |--①-|
口④口③ |--②-|
④口口⑤ |--③-|
①口⑤② |④-⑤-|
16
口④口口 |--①-|
口③口口 |----|
口②口口 |--②-|
①口口① |③-④-|
17
口口①口 |--①-|
③口口③ |②-③-|
口口②口 |④---|
④口口④ |----|
18
②口⑤① |----|
口口口⑤ |①---|
口③④口 |②-③-|
①口口② |④-⑤-|
19
口①口④ |--①-|
①口口口 |--②-|
口②②口 |③---|
口③③口 |--④-|
20
口口口口 |--①-|
口口①口 |----|
口口口口 |--②-|
②③④口 |③-④-|
21
①口①口 |--①-|
口③口③ |②-③-|
②口②口 |④---|
口④口④ |----|
22
⑦⑪⑥② |①-②③|
⑪③⑩口 |④⑤⑥⑦|
⑤①①⑧ |⑧⑨⑩⑪|
⑫⑨④⑫ |--⑫-|
23
口口⑤① |-①②③|
⑥②口口 |④⑤⑥⑦|
口口⑦③
口④口口

口口口⑪
口口⑪口
口⑩口口 |⑧⑨⑩⑪|
⑧口口⑨ |----|
24
口②⑤⑤ |①②③④|
口⑥口③ |⑤-⑥⑦|
口口①口
④口口⑦

⑩口口口
口口⑪⑪
⑧口⑨口 |⑧⑨⑩⑪|
口⑫⑫口 |--⑫-|
25
③口口① |①-②-|
⑥口口⑥ |③-④-|
④⑥⑥② |⑤---|
口⑤⑤口 |⑥---|
26
⑦①①④ |①-②③|
口③口口 |④⑤⑥⑦|
口口⑥口
⑤口口②

口⑪口⑫
⑪口⑧口
口⑨口口 |⑧⑨⑩⑪|
⑫口⑩口 |--⑫-|
27
①③③口 |-①-②|
口⑤②口 |③-④⑤|
口口口④
口口口①

口口口⑧
⑦口⑩口
口口⑥口 |⑥⑦⑧⑨|
⑨⑨口口 |---⑩|
28
①①口口 |①-②-|
②②口口 |③④--|
口口口③
④④口口

口⑧口⑨
⑧口⑤口
口⑥口口 |⑤⑥⑦⑧|
口口⑦口 |--⑨-|
29
④④④④ |①---|
③③③口 |②---|
②②口口 |③---|
①口口口 |④---|
30
口口口口 |①---|
口口口口 |----|
口口口口
①①①①

③口②口
口④口口
③口口② |--②-|
口口④口 |③-④-|
31
口③口口 |----|
①口口② |----|
口口③口 |--①-|
①口②口 |②-③-|
32
③⑥⑥① |①-②-|
⑦口⑦口 |③-④-|
口⑦口⑦ |⑤--⑥|
④⑤⑤② |--⑦-|
33
①③④① |----|
口口口口 |--①-|
口口口口 |--②-|
②口口口 |③-④-|
34
口口口口 |①---|
②口口② |②---|
口口口口
口①①口

④口口口
口口⑥口
⑥口⑤口 |③-④-|
口⑥口③ |⑤-⑥-|
35
口口口① |--①-|
口②口口 |②-③-|
口③③口 |----|
口口口口 |----|
36
①口口口 |①--②|
口④口口 |③-④-|
口③②口
口口口口

⑦⑤⑥⑦
口口口口
⑧口口⑧ |⑤-⑥-|
口⑧⑧口 |⑦-⑧-|
37
④口口④ |--①-|
⑥②②口 |②-③-|
口③③⑤ |④---|
①口口① |⑤-⑥-|
38
口①①口 |①---|
口①口① |----|
①①口口
①①口口

口口⑤口
⑤③④口
口口②⑤ |②-③-|
口⑤口口 |④-⑤-|
39
①①口③ |--①-|
口⑤口口 |②-③-|
口口⑤口 |④-⑤-|
④口②② |----|
40
⑥口⑤⑧ |①-②-|
⑥③③⑧ |③-④-|
②⑦⑦口 |⑤-⑥-|
②口①④ |⑦-⑧-|
41
⑤口口④ |--①-|
⑦②②口 |②-③-|
①口口⑥ |④-⑤-|
①口口③ |⑥-⑦-|
42
口①①口 |①---|
口①口① |----|
①①口口
①①口口

口⑤口口
②③④⑤
⑤口口口 |②-③-|
口口⑤口 |④-⑤-|
43
③口①① |--①-|
口口⑤口 |②-③-|
口⑤口口 |④-⑤-|
②②口④ |----|
44
⑧⑧⑥⑥ |①-②-|
口①⑤口 |③-④-|
口③③口 |⑤-⑥-|
④⑦②② |⑦-⑧-|
45
口口口口 |--①-|
②口口② |②-③-|
口口口口
③口①①

④口口⑤
⑦口口口
口口口⑥ |④-⑤-|
口口口口 |⑥-⑦-|
46
口①①口 |①---|
口①口① |----|
①①口口
①①口口

②口⑤③
⑤④口口
口口口⑤ |②-③-|
口⑤口口 |④-⑤-|
47
①①口③ |--①-|
口⑤口口 |②-③-|
口口⑤口 |④-⑤-|
④口②② |----|
48
口②②口 |①-②-|
口④④口 |③-④-|
①口口口
口口口③

⑤口口口
口口口口
口⑥⑥口 |⑤-⑥-|
⑦⑦⑦⑦ |--⑦-|
49
⑤①①④ |--①-|
⑦③③口 |②-③-|
②口口⑥ |④-⑤-|
口口口口 |⑥-⑦-|
50
口①①口 |①---|
口①口① |----|
①①口口
①①口口

③⑤口口
口口口⑤
⑤口④口 |②-③-|
口口⑤② |④-⑤-|
51
③口①① |--①-|
口口⑤口 |②-③-|
口⑤口口 |④-⑤-|
②②口④ |----|
52
③②②口 |①-②-|
口④④口 |③-④-|
⑤⑥⑥① |⑤-⑥-|
⑦⑦⑦⑦ |--⑦-|
53
口①①口 |--①-|
口③③口 |②-③-|
口口口②
口口口口

口口口口
④口口⑤
⑥口口⑦ |④-⑤-|
口口口口 |⑥-⑦-|
54
③口口⑤ |①--②|
口口②口 |③-④-|
口④口口 |⑤---|
⑥①口① |⑥---|
55
③口口⑤ |①--②|
口口②口 |③-④-|
口④口口 |⑤---|
⑥①口① |⑥---|
56
③口口⑤ |①--②|
口口②口 |③-④-|
口④口口 |⑤---|
⑥①口① |⑥---|
57
③口②口 |①--②|
口③口② |--③-|
口口口口
口①①①

口口口④
⑦口口口
口⑤⑥口 |-④⑤⑥|
口⑨⑧口 |⑦⑧⑨-|
58
③①①口 |①--②|
⑦④④⑦ |③-④-|
②口口口 |-⑤⑥-|
口⑥⑤口 |⑦---|
59
口①①③ |①--②|
⑦④④⑦ |③-④-|
口口口② |-⑤⑥-|
口⑤⑥口 |⑦---|
60
口④③① |①--②|
⑮②⑭⑬ |③--④--⑤-⑥-⑦-|
⑫⑪⑩⑨ |⑧⑨⑩⑪⑫⑬|
⑧⑦⑥⑤ |⑭-⑮-|
61
①④口① |①--②|
口口口⑤ |③④⑤⑥|
口口③口
⑥②口口

口口⑨⑬
⑫⑧口口
⑩⑭口口 |⑦⑧⑨⑩|
口口⑦⑪ |⑪⑫⑬⑭|
62
⑥⑥⑦口 |①②③④|
口④①③ |⑤⑥⑦⑧|
口口⑤③ |----|
⑧②口口 |----|

不確定度: 0

最終更新:2016年07月27日 22:52