とびっきりのふわっふわ
日向美ビタースイーツ♪

BASIC

Level: 3
BPM: 110
Notes: 213

1
口口口口 |----|
口口口口 |----|
口口口口 |----|
口口口口 |----|
2
口口口口 |--①-|
口口口② |----|
口①①口 |----|
口口口口 |②---|
3
口口口口 |①-②-|
③口口口 |----|
口②②① |----|
口口口口 |③---|
4
口口口口 |①-②-|
口口口③ |----|
①②②口 |----|
口口口口 |③---|
5
口口口口 |①---|
⑥口口口 |②---|
⑤口③① |③-④-|
④口口② |⑤-⑥-|
6
口口口口 |--①-|
口口口② |----|
口①①口 |----|
口口口口 |②---|
7
口口口口 |①-②-|
③口口口 |----|
口②②① |----|
口口口口 |③---|
8
口口口④ |①-②-|
口③③口 |----|
①②②口 |③---|
口口口口 |④---|
9
③口①口 |①---|
口②②口 |----|
口口口口 |②---|
口口口口 |③---|
10
口①②② |①---|
口口口口 |----|
口口口口 |②---|
口口口口 |----|
11
口口口① |①---|
口口口② |②---|
口口口③ |③---|
口口口口 |----|
12
口口口口 |①---|
口口口口 |②---|
口口口口 |③---|
④③②① |④---|
13
口口口口 |①---|
口口口口 |----|
①口口口
口口口口

口口口口
②口口口
③口口口 |②---|
口口口口 |③---|
14
口口口口 |----|
口口口口 |①---|
①②③口 |②---|
口口口口 |③---|
15
口口口口 |①---|
口口③② |②---|
口口口① |③---|
口口口口 |----|
16
口口①② |①---|
口口口③ |②---|
口口口④ |③---|
口口口口 |④---|
17
口口口口 |①---|
口④口口 |----|
口③口口 |--②-|
口②口① |③-④-|
18
②②①口 |--①-|
口口口口 |----|
口口口口 |②---|
口口口口 |----|
19
口口口口 |①---|
①①口② |----|
口口口③ |②---|
口口口口 |③---|
20
口口口口 |①---|
口口口口 |②---|
口口口口 |③---|
④③②① |④---|
21
口口口口 |①---|
口口口口 |----|
①口口口
口口口口

口口口口
②口口口
③口口口 |②---|
口口口口 |③---|
22
口口口口 |----|
口口口口 |①---|
口口口口 |②---|
①②③口 |③---|
23
口口口口 |①---|
口口口③ |②---|
口口口② |③---|
口口口① |----|
24
④③②① |①---|
口口口口 |②---|
口口口口 |③---|
口口口口 |④---|
25
口口口口 |①---|
口①①口 |----|
口①①口 |----|
口口口口 |----|
26
口口口口 |①---|
口口口口 |----|
口②②口 |②---|
口口①① |----|
27
口口口口 |①---|
①②③④ |②---|
口口口口 |③---|
口口口口 |④---|
28
口口口口 |①---|
口②②口 |----|
①①口口 |②---|
口口口口 |----|
29
④③②① |①---|
口口口口 |②---|
口口口口 |③---|
口口口口 |④---|
30
口口口口 |①---|
口①①口 |----|
口②②口 |②---|
口口口口 |----|
31
口口口口 |①---|
①口口① |----|
口②②口 |②---|
口③③口 |③---|
32
口口口口 |----|
口口口③ |①---|
口口口② |②---|
口口口① |③---|
33
口口口口 |①--②|
口①①口 |--③-|
口②②口
口③③口

口口口口
口口⑤⑤
④口口④ |④---|
口口口口 |⑤---|
34
①①口口 |①---|
②②口口 |②---|
③③口口 |③---|
口口口口 |----|
35
口口口口 |----|
口口①① |①---|
口口②② |②---|
口口口口 |----|
36
口口口口 |----|
口①①口 |①---|
口②②口 |②---|
口③③口 |③---|
37
口口口口 |----|
③口口口 |①---|
②口口口 |②---|
①口口口 |③---|
38
口①①② |----|
口口口③ |①---|
口口口口 |②---|
口口口口 |③---|
39
口口口口 |①---|
口口口口 |②---|
口口口①
口口口②

口口口口
口口口口
④口口④ |③---|
口③③口 |④---|
40
口口口口 |--①-|
②①①② |----|
③口口③ |②---|
口口口口 |③---|
41
口口口口 |①---|
口口口口 |----|
口口口口 |----|
①口口① |----|
42
口口口口 |----|
口口口口 |①---|
口口口口 |②---|
口③②① |③---|
43
口口口口 |①---|
口口口口 |②---|
②③④口 |③---|
①口口口 |④---|
44
口口口口 |----|
口③②① |①---|
口口口口 |②---|
口口口口 |③---|
45
①②③口 |①---|
口口口口 |②---|
口口口口 |③---|
口口口口 |----|
46
口口口口 |--①-|
口口口② |----|
口①①口 |----|
口口口口 |②---|
47
口口口口 |①-②-|
③口口口 |----|
口②②① |----|
口口口口 |③---|
48
口口口口 |①-②-|
口口口③ |----|
①②②口 |----|
口口口口 |③---|
49
口口口口 |①---|
⑥口口口 |②---|
⑤口③① |③-④-|
④口口② |⑤-⑥-|
50
口口口口 |--①-|
口口口② |----|
口①①口 |----|
口口口口 |②---|
51
口口口口 |①-②-|
③口口口 |----|
口②②① |----|
口口口口 |③---|
52
口口口④ |①-②-|
口③③口 |----|
①②②口 |③---|
口口口口 |④---|
53
口口①口 |①---|
口②②口 |----|
口②②口 |②---|
口口口口 |----|

不確定度: 0

最終更新:2016年07月27日 22:54