とびっきりのふわっふわ
日向美ビタースイーツ♪

ADVANCED

Level: 6
BPM: 110
Notes: 325

1
口口口口 |----|
口口口口 |----|
口口口口 |----|
口口口口 |----|
2
口口口口 |--①②|
⑤口口口 |-③④-|
口③④口 |----|
口①②口 |⑤---|
3
口口口口 |①-②③|
口④⑤① |-④⑤-|
⑥②③口 |----|
口口口口 |⑥---|
4
口④⑤口 |①-②③|
⑥②③口 |-④⑤-|
口口口① |----|
口口口口 |⑥---|
5
口口口口 |①---|
口口口① |②---|
②口口口
口口口口

口口口口
口⑥口③
口口⑤口 |③-④-|
口④口口 |⑤-⑥-|
6
口口口口 |--①②|
⑤口口口 |-③④-|
口③④口 |----|
口①②口 |⑤---|
7
口口口口 |①-②③|
口④⑤① |-④⑤-|
⑥②③口 |----|
口口口口 |⑥---|
8
口④⑤口 |①-②③|
口②③口 |-④⑤-|
口口口①
口口口口

口口口口
⑥口⑧⑥
口⑦⑨口 |⑥--⑦|
口口口口 |⑧-⑨-|
9
口口口口 |①---|
②②③口 |----|
口口④口 |②--③|
口⑤①口 |④-⑤-|
10
口口口口 |①--②|
口②口① |--③-|
口⑤③⑦ |④-⑤-|
④口⑥口 |⑥-⑦-|
11
口②③口 |①-②③|
口④①口 |--④-|
口⑤口口 |⑤---|
口口口口 |----|
12
口口口口 |--①②|
①②⑦③ |③-④⑤|
口⑧口口 |--⑥-|
⑥口⑤④ |⑦-⑧-|
13
口口口口 |①---|
口②口口 |----|
口③口口 |②---|
口口①口 |③---|
14
口③④口 |----|
口⑤①口 |①---|
口口②口 |②-③④|
口口口口 |--⑤-|
15
⑤口口口 |①-②③|
口口③② |--④-|
④①口口 |⑤---|
口口口口 |----|
16
⑤③④口 |--①-|
⑥口②口 |②-③④|
⑦口①口 |--⑤-|
口口口口 |⑥-⑦-|
17
口口口口 |①---|
口口④口 |----|
口口③口 |--②-|
①口②口 |③-④-|
18
口④③口 |--①-|
口①口口 |②-③④|
口②口口
口口口口

口口口口
⑦⑧⑤口
口口⑥口 |--⑤-|
口口口口 |⑥-⑦⑧|
19
口口①口 |----|
口口②口 |----|
口口口口 |①---|
口口口口 |②---|
20
口⑨⑩口 |①-②③|
②③⑧④ |④-⑤⑥|
口口①口 |--⑦-|
⑦口⑥⑤ |⑧-⑨⑩|
21
口口口口 |----|
口①口口 |----|
口②口口 |①---|
口口口口 |②---|
22
口③④口 |----|
⑤口①口 |①---|
口口②口 |②-③④|
口口口口 |--⑤-|
23
口口口口 |①--②|
口③③口 |--③-|
①口口口
口口②口

口口口口
口④口口
口口口口 |----|
口口口口 |--④-|
24
口③②口 |①-②③|
口口④口 |--④-|
口①口口
口口口口

口口⑧口
⑥⑦口口
口口⑤口 |⑤-⑥⑦|
口口口口 |--⑧-|
25
口口口口 |①---|
口口①口 |----|
口口口口 |----|
口口口口 |----|
26
口口口口 |①--②|
④口口④ |③--④|
口②③口
口口①①

口口口口
口⑦⑦口
⑤口口⑤ |-⑤-⑥|
⑥口口⑥ |⑦---|
27
口②口① |①--②|
口③⑤④ |-③-④|
口⑥口口 |-⑤-⑥|
口口口口 |----|
28
口口口口 |①--②|
④口口④ |③--④|
口③②口
①①口口

口口口口
口⑦⑦口
⑤口口⑤ |-⑤-⑥|
⑥口口⑥ |⑦---|
29
①①②② |①---|
③口④④ |②--③|
口③⑤⑤ |--④-|
口口口口 |⑤---|
30
⑤口口⑤ |----|
口④③口 |①---|
口②口② |②-③④|
口①口① |--⑤-|
31
口口口口 |①---|
①口口① |----|
口②②口 |②---|
口③③口 |③---|
32
口口口口 |----|
⑥口口③ |①-②-|
口④⑤② |③-④⑤|
口口口① |--⑥-|
33
口①①口 |①--②|
口②②口 |--③-|
③口口③
口口口口

⑦口口口
口⑤⑥口
口口口口 |④--⑤|
④口口④ |⑥-⑦-|
34
口④⑤口 |①---|
口口③③ |②---|
①口②② |③-④⑤|
口口口口 |----|
35
口④③口 |----|
②②口口 |①---|
①①口口 |②-③④|
口口口口 |----|
36
口⑤⑤口 |----|
③口口④ |①---|
口②②口 |②-③④|
口①①口 |--⑤-|
37
口口⑥⑥ |----|
口口①口 |①-②-|
④⑤②口 |③-④⑤|
口口③口 |--⑥-|
38
口口口口 |----|
口①①口 |①---|
口口口口
口口口口

③口口④
口⑤⑤口
口②②口 |②-③④|
口口口口 |--⑤-|
39
⑤口口⑤ |①--②|
⑤④④⑤ |--③-|
②②③③ |④---|
口①①口 |⑤---|
40
④口口④ |--①-|
⑤①口⑤ |②-③-|
口③②口 |④---|
口口口口 |⑤---|
41
口口口口 |①---|
口口口口 |----|
①口口① |----|
口口口口 |----|
42
口口口口 |----|
口口③口 |①---|
口口②口 |②---|
口口①口 |③---|
43
口口①口 |①---|
口②口口 |②---|
口③口口 |③---|
口④口口 |④---|
44
口口口口 |----|
③口口口 |①---|
②口口口 |②---|
①口口口 |③---|
45
口口口口 |①---|
口口口③ |②---|
口口口② |③---|
口口口① |----|
46
口口口口 |--①②|
⑤口口口 |-③④-|
口③④口 |----|
口①②口 |⑤---|
47
口口口口 |①-②③|
口④⑤① |-④⑤-|
⑥②③口 |----|
口口口口 |⑥---|
48
口④⑤口 |①-②③|
⑥②③口 |-④⑤-|
口口口① |----|
口口口口 |⑥---|
49
口口口口 |①---|
口口口① |②---|
②口口口
口口口口

口口口口
口⑥口③
口口⑤口 |③-④-|
口④口口 |⑤-⑥-|
50
口口口口 |--①②|
⑤口口口 |-③④-|
口③④口 |----|
口①②口 |⑤---|
51
口口口口 |①-②③|
口④⑤① |-④⑤-|
⑥②③口 |----|
口口口口 |⑥---|
52
口④⑤口 |①-②③|
口②③口 |-④⑤-|
口口口①
口口口口

口口口口
⑥口⑧⑥
口⑦⑨口 |⑥--⑦|
口口口口 |⑧-⑨-|
53
口口口口 |①---|
口②②口 |----|
口②②口 |②---|
口口①口 |----|

不確定度: 0

最終更新:2016年07月27日 22:54