とびっきりのふわっふわ
日向美ビタースイーツ♪

EXTREME

Level: 7
BPM: 110
Notes: 425

1
口口口口 |----|
口口口口 |----|
口口口口 |----|
口口口口 |----|
2
口口口口 |--①②|
④⑤⑤② |-③④-|
口口口口 |----|
口①口③ |⑤---|
3
口口口口 |①-②③|
③口口⑤ |-④⑤-|
口①①口
④口②口

口口口口
口口口口
口⑥⑥口 |----|
口口口口 |⑥---|
4
⑤口③口 |①-②③|
口口口口 |-④⑤-|
②口口④
口①①口

口⑥⑥口
口口口口
口口口口 |----|
口口口口 |⑥---|
5
⑥⑤口口 |①---|
口①①④ |②---|
口②②口 |③-④-|
口③③口 |⑤-⑥-|
6
口口口口 |--①②|
②⑤⑤④ |-③④-|
口口口口 |----|
③口①口 |⑤---|
7
口口口口 |①-②③|
⑤⑥⑥③ |-④⑤-|
口①①口 |----|
口②口④ |⑥---|
8
⑤口口③ |①-②③|
口口口口 |-④⑤-|
口②口④
口①①口

口⑥⑥⑨
口⑧口口
口口⑦口 |⑥--⑦|
口口口口 |⑧-⑨-|
9
口口口口 |①---|
口口口口 |----|
口口口①
口口口口

口口③口
口②②④
口②②⑤ |②--③|
口口口口 |④-⑤-|
10
口口口口 |①--②|
①②口口 |--③-|
②①口③
口口③口

口⑥⑤口
④口口⑦
口口口口 |④-⑤⑥|
口口口口 |--⑦-|
11
⑤口口⑤ |①-②③|
口⑥⑥④ |--④-|
口口③② |⑤---|
口①口口 |⑥---|
12
⑤③②⑥ |①-②③|
口口④口 |④-⑤⑥|
口①①口
口口口口

口口口口
口⑦口口
口口⑧口 |--⑦-|
口⑨口口 |⑧-⑨-|
13
口口口口 |①---|
②口②① |----|
③口③口 |②---|
口口口口 |③---|
14
口口口口 |----|
⑤③④口 |①---|
口口口口 |②-③④|
①口②口 |--⑤-|
15
口口⑤口 |①-②③|
④口口口 |--④-|
口口③② |⑤---|
口①口口 |----|
16
口口口⑤ |--①-|
③④口⑥ |②-③④|
口⑦②口 |--⑤-|
口口①口 |⑥-⑦-|
17
口口口口 |①---|
口口④口 |----|
口③口口 |--②-|
②①口口 |③-④-|
18
口口口⑤ |--①-|
口③④⑥ |②-③④|
口口⑦⑧ |--⑤-|
口口②① |⑥-⑦⑧|
19
①口口② |----|
口口口口 |----|
口口口口 |①---|
②口口① |②---|
20
⑤③②⑥ |①-②③|
口口④口 |④-⑤⑥|
口①①口
口口口口

口⑩⑨口
口⑦口口
口⑧口口 |--⑦-|
口口口口 |⑧-⑨⑩|
21
口口口口 |----|
口①口口 |----|
口口②口 |①---|
口口口口 |②---|
22
口口口口 |----|
口③④口 |①---|
⑤口口口 |②-③④|
①口②口 |--⑤-|
23
口③口③ |①--②|
口口②口 |--③-|
口口④口 |----|
口口①口 |--④-|
24
口②③口 |①-②③|
④⑧①口 |--④-|
⑤口口口 |⑤-⑥⑦|
口⑦⑥口 |--⑧-|
25
口口口口 |①---|
口口口口 |----|
口口①口 |----|
口口口口 |----|
26
口口口口 |①--②|
②口③① |③--④|
④④口①
口④④口

口⑥口⑦
口口口⑤
口口口口 |-⑤-⑥|
口口口口 |⑦---|
27
口口口口 |①--②|
⑥①①口 |-③-④|
口⑤③口 |-⑤-⑥|
④口口② |----|
28
口②口③ |①--②|
④口①① |③--④|
④④④①
口④①①

⑥口⑦口
口口口⑤
口口口口 |-⑤-⑥|
口口口口 |⑦---|
29
⑤口口⑥ |①--②|
口④③② |③④-⑤|
口⑦口口 |--⑥-|
口①①口 |⑦---|
30
口⑤⑤口 |----|
③②②③ |①---|
口口口口 |②-③④|
④①①④ |--⑤-|
31
口口口口 |①---|
口口口口 |----|
口口口口
口①①口

口口口口
口③口②
口口口口 |②---|
②口③口 |③---|
32
①①口口 |----|
②②口口 |①-②-|
口口口口
口口口口

⑥口口口
口口⑤口
③③口口 |③-④⑤|
口口口④ |--⑥-|
33
口口口口 |①--②|
②口口① |--③-|
②口口①
口③③口

④④④④
⑥④④口
口⑦⑦口 |④--⑤|
⑤口口口 |⑥-⑦-|
34
口②②② |①---|
口①①口 |②---|
口口口口
口口口口

口口口⑥
口⑤口口
口口④口 |③-④⑤|
③③③口 |--⑥-|
35
②②②口 |①---|
口口口口 |②---|
口口口口
①口口口

⑥口口口
口口⑤口
口④口口 |③-④⑤|
口③③③ |--⑥-|
36
口口口口 |①---|
口②③口 |②---|
④⑤口⑥ |③-④⑤|
口②③① |--⑥-|
37
⑥⑥⑥⑥ |----|
③③口口 |①-②-|
②②⑤口 |③-④⑤|
①①口④ |--⑥-|
38
口口口口 |----|
②④③① |①---|
口口口口 |②-③④|
①⑤⑤② |--⑤-|
39
口①口① |①--②|
②口②口 |--③-|
口口口口
③口③口

口⑤口⑤
口④⑤④
口口④口 |④---|
口口口口 |⑤---|
40
口④⑤口 |--①-|
①口③口 |②-③-|
⑤②口④ |④---|
③口①口 |⑤---|
41
口口口口 |①---|
口①①口 |----|
口口口口 |----|
口①①口 |----|
42
口口口③ |----|
口口③② |①---|
口口②① |②---|
口口①口 |③---|
43
②①①口 |①---|
③②口口 |②---|
④③口口 |③---|
口④口口 |④---|
44
口口口③ |----|
口口③② |①---|
口口②① |②---|
口口①口 |③---|
45
③口口口 |①---|
②③口口 |②---|
①②口口 |③---|
口①口口 |----|
46
口口⑥⑥ |①-②③|
⑤⑦⑦③ |-④⑤-|
①口①口 |⑥---|
口②口④ |⑦---|
47
口口口口 |①-②③|
③口口⑤ |-④⑤-|
口①①口
④口②口

⑥⑥口口
口口口口
口⑦⑦口 |⑥---|
口口口口 |⑦---|
48
⑤口③口 |①-②③|
口口口口 |-④⑤-|
②口口④
口①①口

口⑦⑦口
口⑥⑥口
口口口口 |⑥---|
口口口口 |⑦---|
49
⑥⑤口口 |①---|
口①①④ |②---|
口②②口 |③-④-|
口③③口 |⑤-⑥-|
50
⑥⑥口口 |①-②③|
③⑦⑦⑤ |-④⑤-|
口①口① |⑥---|
④口②口 |⑦---|
51
口口⑥⑥ |①-②③|
⑤⑦⑦③ |-④⑤-|
口①①口 |⑥---|
口②口④ |⑦---|
52
⑤口口③ |①-②③|
口口口口 |-④⑤-|
口②口④
口①①口

⑨⑥⑥口
口⑥⑥口
口⑦⑧口 |⑥--⑦|
口口口口 |⑧-⑨-|
53
口口口口 |①---|
口口口口 |----|
①口口口
口口口口

口②②口
口②口②
②②口口 |②---|
②②口口 |----|

不確定度: 0

最終更新:2016年07月27日 22:54