地方創生☆チクワクティクス
日向美ビタースイーツ♪

BASIC

Level: 3
BPM: 170
Notes: 253

1
口口口口 |----|
口口口口 |----|
口口口口 |----|
口口口口 |----|
2
口口口口 |①---|
口口口口 |----|
口①②口 |②---|
口口口口 |----|
3
③口口口 |①---|
②口口口 |②---|
①口口口 |③---|
口口口口 |----|
4
口口口口 |①---|
口口②① |----|
口口口口 |②---|
口口口口 |----|
5
口口口口 |①---|
②①口口 |----|
口口口口 |②---|
口口口口 |----|
6
口口口口 |①---|
口口口口 |----|
①②口口 |②---|
口口口口 |----|
7
口口口口 |①---|
口口口口 |----|
口口①② |②---|
口口口口 |----|
8
口口口口 |①---|
口口口口 |----|
口口口口 |②---|
口口②① |----|
9
口口口口 |①---|
口口口口 |----|
口口口口 |②---|
②①口口 |----|
10
口②②口 |①---|
口口口口 |----|
口①①口 |②---|
口口口口 |----|
11
口口口① |①---|
口口口② |②---|
口口口③ |③---|
口口口口 |----|
12
口口口口 |①---|
口②②口 |----|
口口口口 |②---|
口①①口 |----|
13
③③③③ |①---|
②口口② |②---|
①口口① |③---|
口口口口 |----|
14
口口口口 |①---|
③②①口 |②---|
口口口口 |③---|
口口口口 |----|
15
口口口口 |①---|
口口口口 |②---|
口①②③ |③---|
口口口口 |----|
16
口口口口 |①---|
口口口口 |②---|
口口口口 |③---|
③②①口 |----|
17
口口口口 |①---|
口①②口 |②---|
口④③口 |③---|
口口口口 |④---|
18
口口口口 |①---|
①口口口 |②---|
②口口口 |③---|
③口口口 |----|
19
口口口口 |①---|
口口口① |②---|
口口口② |③---|
口口口③ |----|
20
口口口口 |①---|
口口口口 |②---|
口③④口 |③---|
口①②口 |④---|
21
③③③③ |①---|
②口口② |②---|
①口口① |③---|
口口口口 |----|
22
口口口口 |①---|
口②①口 |----|
口口口口 |②---|
口口口口 |----|
23
口口口口 |①---|
口口口口 |----|
口②①口 |②---|
口口口口 |----|
24
口口口口 |①---|
口口口口 |----|
口口口口 |②---|
口②①口 |----|
25
口口口③ |①---|
口口口② |②---|
口口口① |③---|
口口口口 |----|
26
口口口口 |①---|
口①②口 |----|
口口口口 |②---|
口口口口 |----|
27
口口口口 |①---|
口口口口 |----|
口①②口 |②---|
口口口口 |----|
28
口口口口 |①---|
口①①口 |----|
口②②口 |②---|
口口口口 |----|
29
①①①① |①---|
口口口口 |----|
口口口口 |----|
口口口口 |----|
30
口口口口 |①---|
口①②口 |----|
口口口口 |②---|
口口口口 |----|
31
口口口口 |①---|
口口口口 |----|
口①②口 |②---|
口口口口 |----|
32
口口口口 |①---|
口口口口 |----|
口口口口 |②---|
口①②口 |----|
33
③口口口 |①---|
②口口口 |②---|
①口口口 |③---|
口口口口 |----|
34
口口口口 |①---|
口②①口 |----|
口口口口 |②---|
口口口口 |----|
35
口口口口 |①---|
口口口口 |----|
口②①口 |②---|
口口口口 |----|
36
口口口口 |①---|
口①①口 |----|
口②②口 |②---|
口口口口 |----|
37
①①①① |①---|
口口口口 |----|
口口口口 |----|
口口口口 |----|
38
口口口口 |①---|
口口①口 |②---|
口口②口 |③---|
口口③口 |----|
39
口口口口 |①---|
口①口口 |②---|
口②口口 |③---|
口③口口 |----|
40
口口口口 |①---|
①口口口 |②---|
②口口口 |③---|
③口口口 |----|
41
②口口② |----|
口口口口 |①---|
①口口① |----|
口口口口 |②---|
42
口②②口 |----|
口口口口 |①---|
口①①口 |----|
口口口口 |②---|
43
②口口② |----|
口口口口 |①---|
①口口① |----|
口口口口 |②---|
44
口②②口 |----|
口口口口 |①---|
口①①口 |----|
口口口口 |②---|
45
口口口口 |①---|
口②①口 |②---|
口③④口 |③---|
口口口口 |④---|
46
口口口口 |①---|
口②①口 |②---|
口③④口 |③---|
口口口口 |④---|
47
①口口① |①---|
口口口口 |----|
口口②口 |②---|
口口口口 |----|
48
口口②口 |①---|
口口①口 |----|
口口口口 |②---|
口口口口 |----|
49
口口口口 |①---|
口口口口 |----|
口②②口 |②---|
口①①口 |----|
50
口②②口 |①---|
口①①口 |----|
口口口口 |②---|
口口口口 |----|
51
①口口① |①---|
口口口口 |----|
口口口口 |----|
口口口口 |----|
52
口③③口 |①---|
口①口口 |②---|
口②口口 |③---|
口口口口 |----|
53
口口口口 |①---|
④③②① |②---|
口口口口 |③---|
口口口口 |④---|
54
口口口口 |①---|
口口口口 |②---|
①②③④ |③---|
口口口口 |④---|
55
①口口口 |①---|
②口口口 |②---|
③口口口 |③---|
④口口口 |④---|
56
口④④口 |①---|
口③③口 |②---|
口②②口 |③---|
口①①口 |④---|
57
口口口口 |①---|
口③②① |②---|
口口口口 |③---|
口口口口 |----|
58
口③③口 |①---|
口口口口 |②---|
口口①口 |③---|
口口②口 |----|
59
口口口口 |①---|
口④③口 |②---|
口②①口 |③---|
口口口口 |④---|
60
①口口① |①---|
②口口② |②---|
③口口③ |③---|
口口口口 |----|
61
口口口口 |①---|
①②③④ |②---|
口口口口 |③---|
口口口口 |④---|
62
口口口口 |①---|
口口口口 |②---|
④③②① |③---|
口口口口 |④---|
63
口口口① |①---|
口口口② |②---|
口口口③ |③---|
口口口④ |④---|
64
口④④口 |①---|
口③③口 |②---|
口②②口 |③---|
口①①口 |④---|
65
口口口口 |①---|
①②③口 |②---|
口口口口 |③---|
口口口口 |----|
66
口③③口 |①---|
口口口口 |②---|
口①口口 |③---|
口②口口 |----|
67
口口口口 |①---|
口③④口 |②---|
口①②口 |③---|
口口口口 |④---|
68
①口口① |①---|
②口口② |②---|
③口口③ |③---|
口口口口 |----|
69
口口口口 |①---|
口①①口 |----|
口口口口 |----|
口口口口 |----|
70
口口口口 |--①-|
口口口口 |----|
口①①口 |----|
口口口口 |----|
71
口口口口 |----|
口口口口 |----|
口口口口 |----|
口口口口 |----|
72
口口口口 |----|
口口口口 |----|
口口口口 |----|
口口口口 |----|
73
口口口口 |----|
口口口口 |----|
口口口口 |----|
口口口口 |----|
74
口口口口 |①---|
口①①口 |----|
口①①口 |----|
口口口口 |----|
75
口口口口 |----|
口口口口 |----|
口口口口 |----|
口口口口 |----|
76
④④④④ |①---|
口①①口 |②---|
口②②口 |③---|
口③③口 |④---|

不確定度: 0

最終更新:2016年07月27日 22:51