地方創生☆チクワクティクス
日向美ビタースイーツ♪

ADVANCED

Level: 6
BPM: 170
Notes: 430

1
口口口口 |----|
口口口口 |----|
口口口口 |----|
口口口口 |----|
2
口口口口 |①---|
口口口口 |----|
口口②口 |②---|
口①口口 |----|
3
③口②③ |①---|
口①口口 |----|
口口口口 |②---|
口口口口 |③---|
4
口①④口 |①---|
口②③口 |②---|
口口口口 |③---|
口口口口 |④---|
5
①口口④ |①---|
②口口③ |②---|
口口口口 |③---|
口口口口 |④---|
6
口口口口 |①---|
口口口口 |②---|
口②③口 |③---|
口①④口 |④---|
7
口口口口 |①---|
口口口口 |②---|
②口口③ |③---|
①口口④ |④---|
8
口①④口 |①---|
口②③口 |②---|
口口口口 |③---|
口口口口 |④---|
9
①口口④ |①---|
②口口③ |②---|
口口口口 |③---|
口口口口 |④---|
10
口口口口 |①---|
口①②口 |②---|
口③④口 |③---|
口口口口 |④---|
11
①口口口 |①-②-|
口口口② |③-④-|
③⑤⑤口 |⑤---|
口口口④ |----|
12
①①①③ |①---|
口口口③ |②---|
口口口③ |③---|
②②②口 |----|
13
口口③③ |①---|
口②①口 |②---|
口①②口 |③---|
③③口口 |----|
14
口④⑤⑤ |①-②-|
口口③口 |③-④-|
口②口口 |⑤---|
口口①口 |----|
15
⑤⑤④口 |①-②-|
口③口口 |③-④-|
口口②口 |⑤---|
口①口口 |----|
16
口口口口 |①-②-|
④③②① |③-④-|
⑧⑦⑥⑤ |⑤-⑥-|
口口口口 |⑦-⑧-|
17
②口口① |①---|
②口口① |②---|
口口口口 |③---|
口③③口 |----|
18
口①口口 |①-②-|
⑤口②口 |③-④-|
⑤③口口 |⑤---|
口口④口 |----|
19
口口①口 |①-②-|
口②口⑤ |③-④-|
口口③⑤ |⑤---|
口④口口 |----|
20
①口口① |①---|
②口口② |----|
口口口口 |②---|
口口口口 |----|
21
⑤⑤⑤⑤ |①-②-|
口③①口 |③-④-|
口④②口 |⑤---|
⑥口口⑥ |⑥---|
22
口口口口 |①---|
①⑤口① |②---|
②口④② |③---|
口③③口 |④-⑤-|
23
②口①③ |①---|
口口口口 |②---|
口口口口 |③---|
④口口④ |④---|
24
口口口口 |①---|
①⑤④① |②---|
②口口② |③---|
口③③口 |④-⑤-|
25
③口②① |①-②-|
口口口口 |③---|
口④④口 |④---|
⑤口口⑤ |⑤---|
26
口④④口 |①---|
①口口① |②---|
②口口② |③---|
口③③口 |④---|
27
口口口口 |①---|
③口口③ |②---|
②口口② |③---|
①④④① |④---|
28
口口口口 |①---|
口②①口 |----|
口①②口 |②---|
口口口口 |----|
29
口口①① |①---|
口口口口 |----|
口口口口
①①口口

口口口口
口口口口
口口口口 |----|
②口口② |②---|
30
口口口口 |①---|
①⑤口① |②---|
②口④② |③---|
口③③口 |④-⑤-|
31
②口①③ |①---|
口口口口 |②---|
口口口口 |③---|
④口口④ |④---|
32
口口口口 |①---|
①⑤④① |②---|
②口口② |③---|
口③③口 |④-⑤-|
33
③口②① |①-②-|
口口口口 |③---|
口④④口 |④---|
⑤口口⑤ |⑤---|
34
口④④口 |①---|
①口口① |②---|
②口口② |③---|
口③③口 |④---|
35
口口口口 |①---|
③口口③ |②---|
②口口② |③---|
①④④① |④---|
36
①口①口 |①---|
口口口口 |----|
口口口口 |②---|
口②口② |----|
37
口口口口 |①---|
口①①② |----|
口①①口 |②---|
口口口口 |----|
38
口口口口 |①---|
口口口口 |----|
①口口② |②---|
口口口口 |----|
39
口口口口 |①---|
①口口② |----|
口口口口 |②---|
口口口口 |----|
40
口口口口 |①---|
口口口口 |----|
①口口② |②---|
口③③口 |--③-|
41
①⑤⑤口 |--①-|
②口口口 |②-③-|
③口口口 |④---|
④⑥⑥口 |⑤-⑥-|
42
口⑤⑤① |--①-|
口口口② |②-③-|
口口口③ |④---|
口⑥⑥④ |⑤-⑥-|
43
口⑥⑤⑦ |--①-|
口④③口 |②-③-|
口②①口 |④-⑤-|
口口口口 |⑥-⑦-|
44
①⑥⑥口 |①-②-|
③口口② |③-④-|
⑤口口④ |⑤---|
口口口口 |⑥---|
45
口口口口 |①---|
口口口口 |②---|
口口口口 |③---|
④③②① |④---|
46
口口口口 |①---|
口口口口 |②---|
①②③④ |③---|
口口口口 |④---|
47
口①①口 |①---|
口口口口 |----|
口口口口 |②---|
②口口② |----|
48
口口口口 |①---|
口①①口 |----|
②口口② |②---|
口口口口 |----|
49
口口口口 |①---|
②口口② |----|
口①①口 |②---|
口口口口 |----|
50
②口口② |①---|
口口口口 |----|
口口口口 |②---|
口①①口 |----|
51
口口口口 |①---|
口①①口 |----|
口①①口 |----|
口口口口 |----|
52
口⑥⑥口 |①-②-|
⑤口口口 |③-④-|
③口口④ |⑤---|
①口口② |⑥---|
53
口口⑤口 |①---|
口④口口 |②---|
③②②口 |③-④-|
口①①口 |⑤---|
54
口口口口 |①---|
口口口口 |----|
口①①口 |②---|
②口口② |----|
55
①口口② |①---|
①口口② |②---|
④口口③ |③---|
④口口③ |④---|
56
②②①① |①-②-|
④④③③ |③-④-|
⑥⑥⑤⑤ |⑤-⑥-|
⑧⑧⑦⑦ |⑦-⑧-|
57
口②①口 |①-②-|
口④③口 |③-④-|
口口⑤口 |⑤---|
口⑥⑥口 |⑥---|
58
①口口① |①---|
②口口② |②---|
③口口③ |③---|
口④口口 |--④-|
59
口②①口 |①-②-|
口④③口 |③-④-|
口⑥⑤口 |⑤-⑥-|
口⑧⑦口 |⑦-⑧-|
60
口⑤⑤① |①-②-|
口④④② |③---|
口口口③ |④---|
口口口口 |⑤---|
61
口⑤口口 |①---|
口口④口 |②---|
口②②③ |③-④-|
口①①口 |⑤---|
62
口口口口 |①---|
口口口口 |----|
口①①口 |②---|
②口口② |----|
63
②口口① |①---|
②口口① |②---|
③口口④ |③---|
③口口④ |④---|
64
①①②② |①-②-|
③③④④ |③-④-|
⑤⑤⑥⑥ |⑤-⑥-|
⑦⑦⑧⑧ |⑦-⑧-|
65
口①②口 |①-②-|
口③④口 |③-④-|
口⑤口口 |⑤---|
口⑥⑥口 |⑥---|
66
①口口① |①---|
②口口② |②---|
③口口③ |③---|
口口口口 |----|
67
口口口① |--①-|
②口口⑦ |②-③-|
⑥口口③ |④-⑤-|
④口口⑤ |⑥-⑦-|
68
①③③口 |①---|
口口口口 |②---|
口口口口 |③---|
口②②口 |----|
69
口口口口 |①---|
口口③③ |--②-|
②②口口 |----|
口口①① |③---|
70
口①①口 |--①-|
口口口口 |----|
口口口口 |----|
口口口口 |----|
71
口口口口 |----|
口口口口 |----|
口口口口 |----|
口口口口 |----|
72
口口口口 |----|
口口口口 |----|
口口口口 |----|
口口口口 |----|
73
口口口口 |----|
口口口口 |----|
口口口口 |----|
口口口口 |----|
74
口口口口 |①---|
口①①口 |----|
口①①口 |----|
口口口口 |----|
75
口口口口 |----|
口口口口 |----|
口口口口 |----|
口口口口 |----|
76
④口口④ |①---|
口口③口 |②---|
口②①口 |③---|
口口口口 |④---|

不確定度: 0

最終更新:2016年07月27日 22:51