地方創生☆チクワクティクス
日向美ビタースイーツ♪

EXTREME

Level: 9
BPM: 170
Notes: 703

1
口口口口 |----|
口口口口 |----|
口口口口 |----|
口口口口 |----|
2
⑤④④口 |①--②|
⑥⑧②口 |③-④-|
⑦①①口 |⑤-⑥-|
口③口口 |⑦-⑧-|
3
口口口口 |①-②-|
口口口④ |③-④-|
口口①③
口口口②

口口口⑤
口口⑦口
口⑥⑥口 |⑤---|
口口口口 |⑥--⑦|
4
⑥②口口 |①-②-|
④口口③ |--③-|
口⑤⑦口 |④--⑤|
口①口口 |⑥--⑦|
5
口⑥⑤① |①-②-|
口②②口 |--③-|
口口口口 |④---|
口③④口 |--⑤⑥|
6
①口口口 |①---|
口口②口 |②---|
口③口口 |③---|
口口④口 |④---|
7
①②②① |①---|
口⑥③口 |②--③|
口⑤⑤口 |④---|
口④口口 |⑤--⑥|
8
口口②⑥ |①-②-|
③口口④ |--③-|
口⑦⑤口 |④--⑤|
口口①口 |⑥--⑦|
9
①口口口 |①-②-|
⑤②②⑤ |--③-|
口口口口 |④---|
⑥④③口 |⑤--⑥|
10
④口口① |①---|
口口口口 |②--③|
②⑤⑤② |④---|
口⑥⑥③ |⑤--⑥|
11
⑤①①② |①-②-|
③⑪⑩④ |③-④-|
口⑨⑧口 |⑤-⑥⑦|
⑦口口⑥ |⑧⑨⑩⑪|
12
⑧⑥⑥⑧ |①---②-|
⑤口口④ |③-④-⑤-|
③口口② |⑥---⑦-|
⑦①①⑦ |⑧---|
13
口口口口 |①---|
口①②口 |②---|
①①②②
口①②口

③③③③
⑥口口口
⑤口口口 |③-④-|
④口口口 |⑤-⑥-|
14
口口口口 |①-②-|
口口口① |③-④-|
口口口②
口口④③

口⑦⑦口
⑧口⑥⑨
⑩口口口 |⑤⑥-⑦|
口⑤口口 |-⑧⑨⑩|
15
口口⑥口 |①②-③|
口⑤④口 |-④⑤⑥|
口③③①
②口口口

口⑦口口
⑧口口口
⑨口口口 |⑦-⑧-|
⑩口口口 |⑨-⑩-|
16
口⑦⑦口 |①-②-|
⑧口⑥① |③-④-|
口口⑨② |⑤⑥-⑦|
⑩⑤④③ |-⑧⑨⑩|
17
口⑦⑦① |①-②-|
⑥③口② |③-④-|
⑥④口口 |⑤--⑥|
口⑤⑤口 |--⑦-|
18
口口口口 |①-②-|
口口口① |③-④-|
口口口②
口口④③

口⑦⑦口
⑧口⑥⑨
⑩口口口 |⑤⑥-⑦|
口⑤口口 |-⑧⑨⑩|
19
口口⑥口 |①②-③|
口⑤④口 |-④⑤⑥|
口③③①
②口口口

口⑦口口
⑧口口口
⑨口口口 |⑦-⑧-|
⑩口口口 |⑨-⑩-|
20
口口③口 |①---|
口②②① |----|
口④口① |②-③④|
口口口口 |----|
21
口①④口 |①-②-|
①口口④ |③-④-|
③口口②
口③②口

⑤口口⑤
口口口口
口口口口 |⑤---|
⑥口⑦⑥ |⑥--⑦|
22
口③③口 |①---|
口①口⑤ |②---|
口②②④ |③---|
口口口口 |④-⑤-|
23
口⑦口① |①--②|
口②④口 |③--④|
口口口口 |⑤---|
⑥⑤③⑥ |⑥--⑦|
24
口口口口 |①---|
口②口口 |②---|
口②①口
口口口口

口口③③
④口口口
④口⑤口 |③---|
口⑥口口 |④-⑤⑥|
25
口口口③ |①-②-|
口④①② |③--④|
口⑦口口 |⑤---|
⑥口⑤⑥ |⑥--⑦|
26
③③①口 |①---|
口口②④ |②---|
口⑤②④ |③---|
口口口口 |④--⑤|
27
口②①口 |①---|
②口口口 |②---|
口口口口
口口口口

口口⑤口
口口口口
口口④③ |③---|
口口③口 |④--⑤|
28
口口口口 |①---|
④①③② |②---|
①①③③ |③---|
口①③口 |④---|
29
①①①① |①---|
口口口口 |----|
口口口口 |----|
②③口② |②--③|
30
口口③③ |①---|
⑤口①口 |②---|
④②②口 |③---|
口口口口 |④-⑤-|
31
①口⑦口 |①--②|
口④②口 |③--④|
口口口口 |⑤---|
⑥③⑤⑥ |⑥--⑦|
32
口口口口 |①---|
口口②口 |②---|
口①②口
口口口口

③③口口
口口口④
口⑤口④ |③---|
口口⑥口 |④-⑤⑥|
33
③口口口 |①-②-|
②①④口 |③--④|
口口⑦口 |⑤---|
⑥⑤口⑥ |⑥--⑦|
34
口①③③ |①---|
④②口口 |②---|
④②⑤口 |③---|
口口口口 |④--⑤|
35
口①②口 |①---|
口口口② |②---|
口口口口
口口口口

口⑤口口
口口口口
③④口口 |③---|
口③口口 |④--⑤|
36
口口口口 |①---|
②③①④ |②---|
③③①① |③---|
口③①口 |④---|
37
①①①① |①---|
口②口口 |②-③-|
口口③口
口口口口

口⑤口口
⑤口口口
口口口口 |④---|
口④口口 |--⑤-|
38
口口口口 |--①-|
口口②口 |--②-|
口③口① |③---|
口口①口 |----|
39
口①①口 |①---|
口口②口 |②-③-|
口③口口
口口口口

口口⑤口
口口口⑤
口口口口 |④---|
口口④口 |--⑤-|
40
口口口口 |--①-|
口②口口 |②-③-|
①口③口
口①口口

口口口口
口口④口
口⑤口口 |④-⑤-|
⑥⑦⑦口 |⑥-⑦-|
41
⑤②口④ |--①-|
②⑤口③ |②-③-|
口口口② |④---|
口口⑥① |⑤-⑥-|
42
⑤②④④ |--①-|
②⑤口① |②-③-|
口口口② |④---|
口口⑥③ |⑤-⑥-|
43
⑥②④⑤ |--①-|
②⑥⑥③ |②-③-|
口口②⑦ |④-⑤-|
口口口① |⑥-⑦-|
44
⑥③⑤口 |①-②-|
③⑥口④ |③-④-|
口口③口 |⑤---|
口口①② |⑥---|
45
口⑫⑪⑩ |①-②-③-|
口⑨⑧⑦ |④-⑤-⑥-|
口⑥⑤④ |⑦-⑧-⑨-|
口③②① |⑩-⑪-⑫-|
46
⑫⑪⑩口 |①-②-③-|
⑨⑧⑦口 |④-⑤-⑥-|
⑥⑤④口 |⑦-⑧-⑨-|
③②①口 |⑩-⑪-⑫-|
47
口口口口 |①---|
口口口① |----|
口口口① |②---|
②口口口 |----|
48
口口口口 |①---|
②②②口 |----|
①①口口 |②---|
口口口口 |----|
49
①①①① |①---|
口口口口 |----|
口②口口 |②---|
口口口口 |----|
50
④⑤⑨⑬ |①-②-|
③⑥⑩⑭ |③-④-|
②⑦⑪⑮ |⑤⑥⑦⑧|
①⑧⑫⑯ |⑨⑩⑪⑫⑬⑭⑮⑯|
51
口口口口 |①---|
①口口口 |----|
①口口口 |----|
口口口口 |----|
52
口口口口 |①-②③|
口⑤⑤② |④-⑤-|
③①①口
口口口④

⑥口口⑥
口口口口
口⑧口口 |⑥---|
口⑦⑦口 |⑦--⑧|
53
口②①口 |①---|
②口口① |②---|
口口口口
口口口口

口口口⑤
口④口⑤
口口④口 |③-④-|
③③口口 |⑤---|
54
②①①口 |①---|
①口口口 |②---|
①口口口
口口口②

口⑦口④
⑦⑤口③
口口⑥③ |③-④⑤|
口③③口 |⑥-⑦-|
55
口口口③ |①---|
口④①口 |②---|
口①③口 |③---|
④②②口 |④---|
56
①①⑧④ |①-②-|
①口⑦③ |③-④-|
⑧口⑥② |⑤-⑥-|
口⑦⑤① |⑦-⑧-|
57
②口口口 |①-②-|
③①口口 |③-④-|
口④⑦口 |⑤---|
⑥口⑤⑥ |⑥--⑦|
58
口①口口 |①---|
①口口口 |②---|
口口口口
口②②口

④⑤③③
⑤④口③
口③口口 |③-④-|
③口口⑥ |⑤-⑥-|
59
⑧⑥⑥⑦ |①-②-|
口④③口 |③-④-|
⑤③④⑤ |⑤-⑥-|
⑦①②⑧ |⑦-⑧-|
60
口口口口 |①-②-|
③②①口 |③---|
③①②口
口③③口

口④④④
口⑥口④
口口⑥④ |④---|
⑤口口⑤ |⑤--⑥|
61
①口②口 |①---|
①口口② |②---|
口口口口
口口口口

⑤口口口
⑤口④口
口④口口 |③-④-|
口口③③ |⑤---|
62
口①①② |①---|
口口口① |②---|
口口口①
②口口口

④口⑦口
③口⑤⑦
③⑥口口 |③-④⑤|
口③③口 |⑥-⑦-|
63
③口口口 |①---|
口①④口 |②---|
口③①口 |③---|
口②②④ |④---|
64
④⑧①① |①-②-|
③⑦⑧① |③-④-|
②⑥口⑦ |⑤-⑥-|
①⑤⑥口 |⑦-⑧-|
65
口口④① |①---|
口口口④ |②--③|
②③口口 |④---|
⑤②口⑤ |⑤---|
66
口①口① |①---|
口口③口 |②--③|
②③口①
口②口口

⑤⑥④口
⑥⑤口④
口口口口 |④-⑤-|
口口口口 |⑥---|
67
④⑤⑥③ |--①-|
⑤口⑦② |②-③-|
⑥⑦口① |④-⑤-|
③②①④ |⑥-⑦-|
68
⑤⑤⑤③ |①--②|
⑤④⑦① |③-④-|
⑤⑥②① |⑤-⑥-|
③①①④ |⑦---|
69
口口口口 |①②③④|
口口口① |⑤-⑥⑦|
口⑦⑥②
口⑤④③

⑫口⑩⑪
⑭⑨⑧⑬
口口口口 |⑧⑨⑩-|
口口口口 |⑪⑫⑬⑭|
70
口口口⑧ |①-②-|
口口⑥⑦ |③-④-|
口④⑤① |⑤-⑥-|
②③口口 |⑦-⑧-|
71
口口口② |①---|
口①②口 |----|
口②口口 |----|
②口口口 |②---|
72
①口口口 |-①--|
口①口口 |----|
口口①口 |----|
口口口① |----|
73
口口口口 |----|
口口口口 |----|
口口口口 |----|
口口口口 |----|
74
①①①口 |①---|
①①①口 |----|
①①①口 |----|
口口口口 |----|
75
口口口口 |----|
口口口口 |----|
口口口口 |----|
口口口口 |----|
76
口①①口 |①-②③|
③口②口 |④-⑤-|
口口⑤⑤
口口④④

⑥⑦⑦⑥
口⑦口⑦
⑦⑦口口 |⑥---|
⑦⑦口口 |⑦---|

不確定度: 0

最終更新:2016年07月27日 22:50