Theory of Eternity
TAG

EXTREME

Level: 9
BPM: 160
Notes: 858

1
口口口口 |----|
口口口口 |----|
口口口口 |----|
口口口口 |----|
2
⑧⑦③④ |①-②-|
口②⑥口 |③-④-|
①⑤口口 |⑤-⑥-|
①⑤口① |⑦-⑧-|
3
口⑤口口 |①-②-|
口④⑥③ |③-④-|
口⑦①② |⑤-⑥-|
口口①⑧ |⑦-⑧-|
4
⑧⑦③④ |①-②-|
口②⑥口 |③-④-|
①⑤口口 |⑤-⑥-|
①⑤口口 |⑦-⑧-|
5
口⑤口口 |①-②-|
口④⑥③ |③-④-|
口⑦①② |⑤-⑥-|
口口①⑧ |⑦-⑧-|
6
⑧⑦③④ |①-②-|
口②⑥口 |③-④-|
①⑤口① |⑤-⑥-|
①⑤口口 |⑦-⑧-|
7
口⑤口口 |①-②-|
口④⑥③ |③-④-|
口⑦①② |⑤-⑥-|
口口①⑧ |⑦-⑧-|
8
⑧⑦③④ |①-②-|
口②⑥口 |③-④-|
①⑤口口 |⑤-⑥-|
①⑤口口 |⑦-⑧-|
9
口口口口 |①-②-|
口口口④ |③-④-|
②③①①
①口②②

口⑥⑥口
⑤⑦⑦口
口口口⑨ |⑤-⑥-|
⑧口口口 |⑦-⑧⑨|
10
①⑤⑤① |①-②-|
③口口④ |③---|
⑥口口口 |④-⑤-|
口②口口 |--⑥-|
11
口口口口 |①---|
口①①口 |②-③-|
口③口③
口口口②

⑥口口⑤
④⑥口口
口口⑤口 |--④-|
口④口口 |⑤-⑥-|
12
口④④口 |--①-|
③口口② |②---|
口口口⑤ |③-④-|
口口①口 |--⑤-|
13
①④口① |①---|
③口⑤③ |②-③-|
④⑥②口 |--④-|
⑥口口⑤ |⑤-⑥-|
14
口口口① |①-②-|
③③⑤⑤ |③---|
④口口② |④-⑤-|
口口口⑥ |--⑥-|
15
口①⑥口 |①---|
③③⑥口 |②-③-|
⑤①①④ |--④-|
⑤②口④ |⑤-⑥-|
16
①②口⑥ |①--②③④|
口③口⑦ |⑤--⑥⑦⑧|
口④口⑧
口⑤口口

⑩口⑪口
⑫口⑬口
⑭口⑮口 |⑨---|
口口⑨⑨ |⑩⑪⑫⑬⑭⑮|
17
口口口口 |①---|
口⑥⑤口 |--②-|
口④口口 |--③-|
①①③② |④-⑤⑥|
18
①口口① |①-②-|
口口口口 |③---|
③口②③
口口口口

⑥④④口
④⑤⑤口
口口口口 |④--⑤|
口口⑦⑦ |⑥-⑦-|
19
口口口口 |①-②-|
口口口口 |③---|
③②口②
①口口口

口⑧口⑤
⑥④口⑨
口⑩⑦口 |④⑤⑥⑦|
口口⑪口 |⑧⑨⑩⑪|
20
⑥④④口 |①-②-|
④口③口 |③---|
③⑤⑤② |④--⑤|
①⑦⑦口 |⑥-⑦-|
21
⑥口④口 |①-②-|
④⑤②② |③---|
③口口口 |④-⑤-|
①⑦口⑥ |⑥-⑦-|
22
⑥④④① |①-②-|
④⑤⑤口 |③---|
③口②③ |④--⑤|
①口⑦⑦ |⑥-⑦-|
23
口口口口 |①-②-|
口口口口 |③---|
③②口②
①口口口

口⑧口⑤
⑥④口⑨
口⑩⑦口 |④⑤⑥⑦|
口口⑪口 |⑧⑨⑩⑪|
24
口口口口 |①-②-|
口口②口 |③---|
③口口③
①口口口

⑥⑦⑤④
④⑤⑦⑥
口口口口 |④-⑤-|
口口口口 |⑥-⑦-|
25
口口口口 |①-②-|
口口口口 |----|
口①①口
口②②口

口口口③
③口口口
口④口⑥ |--③-|
口⑤口口 |④-⑤⑥|
26
口①①口 |①-②-|
口口口口 |③---|
③口口口
口口②③

⑥口口口
④口⑤⑤
口④④口 |④--⑤|
口⑦⑦口 |⑥-⑦-|
27
口⑧②⑤ |①-②-|
⑥④口⑨ |③---|
③⑩⑦② |④⑤⑥⑦|
①口⑪口 |⑧⑨⑩⑪|
28
⑥⑦口⑦ |①-②-|
④④④口 |③---|
③⑤⑤② |④--⑤|
①口口③ |⑥-⑦-|
29
口口②口 |①-②-|
口口口口 |③-④⑤|
③口口②
①④⑤口

口⑫⑬口
⑥⑩⑪⑦
口⑧⑨口 |⑥⑦⑧⑨|
口口口口 |⑩⑪⑫⑬|
30
⑥⑦口① |①-②-|
④口口⑦ |③---|
③④④③ |④--⑤|
①⑤⑤② |⑥-⑦-|
31
口⑧②⑤ |①-②-|
⑥④口⑨ |③---|
③⑩⑦② |④⑤⑥⑦|
①口⑪口 |⑧⑨⑩⑪|
32
口口口口 |①-②-|
口口②口 |③---|
③口口③
①口口口

⑥⑦⑤④
④⑤⑦⑥
口口口口 |④-⑤-|
口口口口 |⑥-⑦-|
33
口口口口 |①-②-|
口口口口 |----|
口①①口
②口口②

口口口口
口③⑥口
⑤⑦⑩④ |③④⑤⑥|
⑨口⑧口 |⑦⑧⑨⑩|
34
⑨①②③ |①-②-|
⑤口口⑥ |③-④⑤|
口⑦口⑧ |-⑥-⑦|
口④口口 |⑧-⑨-|
35
口口⑨⑤ |①-②-|
⑥口口口 |③-④⑤|
⑧口④口 |-⑥-⑦|
③②①⑦ |⑧-⑨-|
36
⑧口口⑨ |①-②-|
⑤①②③ |③-④⑤|
口⑦口⑥ |-⑥-⑦|
口④口口 |⑧-⑨-|
37
⑪⑨⑦⑪ |①②③④|
⑤①④口 |⑤-⑥⑦|
口⑧⑥口 |-⑧⑨-|
⑩③②⑩ |⑩-⑪-|
38
口口口口 |①-②-|
③②①口 |③-④⑤|
⑤口口口
口④①口

口⑦⑧口
口口⑨⑥
口口⑩口 |-⑥-⑦|
口口⑪口 |⑧⑨⑩⑪|
39
口⑤口③ |①-②-|
①①口口 |③-④⑤|
口口口口
口②口④

⑧口口口
⑨口⑦⑧
⑩⑥口口 |-⑥-⑦|
⑪口口口 |⑧⑨⑩⑪|
40
⑨③①① |①-②-|
⑩④⑦⑦ |③④⑤⑥|
⑪⑤②② |⑦-⑧-|
⑫⑥⑧⑧ |⑨⑩⑪⑫|
41
⑤①①⑤ |①--②|
④口口④ |--③-|
⑥②②⑥ |-④--|
口③③口 |⑤-⑥-|
42
口口口口 |①-②③|
⑤①①⑤ |④-⑤-|
口④③口
口②口口

⑧⑧口口
口⑪口口
口口口⑩ |⑥⑦-⑧|
⑨口⑥⑦ |-⑨⑩⑪|
43
⑥⑤⑩③ |--①②|
②口④④ |③-④-|
⑨口①口 |⑤⑥-⑦|
⑦口⑦⑧ |-⑧⑨⑩|
44
⑦⑦口口 |--①②|
④⑩口④ |③-④-|
口③②⑨ |⑤⑥-⑦|
⑧①⑤⑥ |-⑧⑨⑩|
45
⑥⑤口③ |--①②|
⑦口④⑦ |③-④-|
⑧④①⑧ |⑤⑥--|
口②口口 |⑦-⑧-|
46
口口⑤⑤ |①-②③|
口口口口 |④-⑤-|
口④③口
①②口①

⑧⑧口口
口⑪⑦口
口口口⑩ |⑥⑦-⑧|
⑨口⑥口 |-⑨⑩⑪|
47
⑥⑤⑩③ |--①②|
②口④④ |③-④-|
⑨口①口 |⑤⑥-⑦|
⑦口⑦⑧ |-⑧⑨⑩|
48
⑦⑦口口 |--①②|
④⑩口④ |③-④-|
口③②⑨ |⑤⑥-⑦|
⑧①⑤⑥ |-⑧⑨⑩|
49
口口口① |①--②|
②口③口 |--③-|
口口①口
口②口③

④⑥口⑥
口口口口
口④口口 |-④--|
⑤口⑤口 |⑤-⑥-|
50
③⑤③⑤ |--①-|
口①口① |②---|
④口④口 |③--④|
口②口② |--⑤-|
51
③口③口 |--①-|
①⑤①⑥ |②---|
④⑦④⑧ |③--④|
②口②口 |⑤⑥⑦⑧|
52
口②口② |①-②-|
③口③口 |③---|
口口口口
口①①口

口⑦口⑦
口④口口
④口④⑤ |④--⑤|
⑥口口⑤ |⑥-⑦-|
53
①口口口 |①-②-|
③口②② |③---|
口③③口
口口口口

口口④⑦
口④⑦口
④口口⑤ |④--⑤|
⑥⑦⑤口 |⑥-⑦-|
54
①②口口 |①-②-|
③口口② |③---|
口③③口
口口口①

口口④口
口④⑦⑦
④口口口 |④--⑤|
⑥⑤⑤口 |⑥-⑦-|
55
①②④② |①-②-|
③④口口 |③---|
④③⑦③ |④--⑤|
⑥⑤⑤⑤ |⑥-⑦-|
56
口④口口 |①②③④|
②⑦③⑥ |⑤⑥⑦⑧|
⑤口口①
口口⑧口

⑬口口口
口口⑯口
口⑮⑫⑭ |⑨⑩⑪⑫|
⑨⑪口⑩ |⑬⑭⑮⑯|
57
口①②③ |①②③-----|
口口口口 |----|
口口口口 |----|
口口口口 |----|
58
⑨①②③ |①-②-|
⑤口口⑥ |③-④⑤|
口⑦口⑧ |-⑥-⑦|
口④①① |⑧-⑨-|
59
口口⑨⑤ |①-②-|
⑥口口口 |③-④⑤|
⑧口④口 |-⑥-⑦|
③②①⑦ |⑧-⑨-|
60
⑧口口⑨ |①-②-|
⑤①②③ |③-④⑤|
口⑦口⑥ |-⑥-⑦|
口④口口 |⑧-⑨-|
61
⑪⑨⑦⑪ |①②③④|
⑤①④口 |⑤-⑥⑦|
口⑧⑥口 |-⑧⑨-|
⑩③②⑩ |⑩-⑪-|
62
口口口口 |①-②-|
③②①口 |③-④⑤|
⑤口口口
口④①口

口⑦⑧口
口口⑨⑥
口口⑩口 |-⑥-⑦|
口口⑪口 |⑧⑨⑩⑪|
63
口⑤口③ |①-②-|
①①口口 |③-④⑤|
口口口口
口②口④

⑧口口口
⑨口⑦⑧
⑩⑥口口 |-⑥-⑦|
⑪口口口 |⑧⑨⑩⑪|
64
⑨③①① |①-②-|
⑩④⑦⑦ |③④⑤⑥|
⑪⑤②② |⑦-⑧-|
⑫⑥⑧⑧ |⑨⑩⑪⑫|
65
口①①口 |①--②|
④口口④ |--③-|
⑥②②⑥ |-④--|
⑤③③⑤ |⑤-⑥-|
66
⑤①①① |----|
②⑧①② |①-②-|
口口①⑦ |③④-⑤|
⑥口③④ |-⑥⑦⑧|
67
⑥⑤⑩③ |--①②|
②口④④ |③-④-|
⑨口①口 |⑤⑥-⑦|
⑦口⑦⑧ |-⑧⑨⑩|
68
⑦⑦口口 |--①②|
④⑩口④ |③-④-|
口③②⑨ |⑤⑥-⑦|
⑧①⑤⑥ |-⑧⑨⑩|
69
⑥⑤口③ |--①②|
⑦口④⑦ |③-④-|
⑧④①⑧ |⑤⑥--|
口②口口 |⑦-⑧-|
70
口口⑤⑤ |①-②③|
口口口口 |④-⑤-|
口④③口
①②口①

⑧⑧口口
口⑪⑦口
口口口⑩ |⑥⑦-⑧|
⑨口⑥口 |-⑨⑩⑪|
71
⑥⑤⑩③ |--①②|
②口④④ |③-④-|
⑨口①口 |⑤⑥-⑦|
⑦口⑦⑧ |-⑧⑨⑩|
72
⑦⑦口口 |--①②|
④⑩口④ |③-④-|
口③②⑨ |⑤⑥-⑦|
⑧①⑤⑥ |-⑧⑨⑩|
73
④⑤⑤① |①--②|
②口③口 |--③-|
⑥④①⑥ |-④--|
口②口③ |⑤-⑥-|
74
③口口③ |--①-|
⑤①①⑤ |②---|
④口口④ |③-④-|
②口口② |--⑤-|
75
③口口③ |①---|
口③③口 |②-③-|
口口口口 |----|
②①①② |----|


不确定度: 0

タグ:

+ タグ編集
  • タグ:

このサイトはreCAPTCHAによって保護されており、Googleの プライバシーポリシー利用規約 が適用されます。

最終更新:2012年11月10日 14:07