全力バタンキュー
A応P

BASIC

Level: 3
BPM: 155
Notes: 219

1
口口口口 |----|
口口口口 |----|
口口口口 |----|
口口口口 |----|
2
口口口口 |①---|
口口口② |----|
口口口① |②---|
口口口口 |----|
3
口口口口 |①---|
口口②口 |----|
口口①口 |②---|
口口口口 |----|
4
口口口口 |①---|
口②口口 |----|
口①口口 |②---|
口口口口 |----|
5
口口口口 |①---|
②口口口 |----|
①口口口 |②---|
口口口口 |----|
6
口口口口 |①---|
②口口口 |----|
①口口口 |②---|
口口口口 |----|
7
口口口口 |①---|
口②口口 |----|
口①口口 |②---|
口口口口 |----|
8
口口口口 |①---|
口口②口 |----|
口口①口 |②---|
口口口口 |----|
9
口口口口 |①---|
口口口口 |----|
口口口① |----|
口口口口 |----|
10
口口口① |①---|
口口口② |②---|
口口口③ |③---|
口口口口 |----|
11
口口口口 |①---|
口①①口 |----|
口口口口 |----|
口口口口 |----|
12
口②①口 |----|
口口③口 |①---|
口口口口 |②---|
口口口口 |③---|
13
口口口口 |①---|
口①口口 |②---|
口③②口 |③---|
口口④口 |④---|
14
口口口口 |①---|
口口口① |②---|
口口口② |③---|
口口口③ |----|
15
口口口口 |①---|
口口口口 |----|
口①①口 |----|
口口口口 |----|
16
口口口口 |----|
口②①口 |①---|
口口③口 |②---|
口口口口 |③---|
17
口口口口 |①---|
口口口口 |----|
口①口口 |----|
口口口口 |----|
18
口口口口 |----|
口口口口 |----|
口②口口 |①---|
口①口口 |②---|
19
口口口口 |①---|
口①口口 |----|
口口③口 |②---|
口口②口 |③---|
20
口②③口 |①---|
口口①口 |----|
口口口口 |②---|
口口口口 |③---|
21
口口口① |①---|
口口口② |②---|
口口口③ |③---|
口口口④ |④---|
22
口口口口 |①---|
口口口口 |----|
口口口口 |----|
②口①口 |②---|
23
口口口口 |①---|
口口口口 |②---|
口口口④ |③---|
口①②③ |④---|
24
口口口口 |①---|
④口口口 |②---|
③②①口 |③---|
口口口口 |④---|
25
口口口口 |①---|
口①①口 |--②-|
口②②口 |----|
口③③口 |③---|
26
口口口口 |①---|
口口口口 |②---|
④③②① |③---|
口口口口 |④---|
27
④②②③ |①---|
口①①口 |②---|
口口口口 |③---|
口口口口 |④---|
28
口口口口 |①---|
②口口① |②---|
④口口③ |③---|
口口口口 |④---|
29
口①①口 |①---|
③①①② |----|
口口口口 |②---|
口口口口 |③---|
30
口口口口 |①---|
口口口口 |②---|
②口口① |③---|
④口口③ |④---|
31
口③③口 |①---|
口②②口 |----|
口①①口 |②---|
口口口口 |③---|
32
口口口口 |①---|
②口口① |②---|
④口口③ |③---|
口口口口 |④---|
33
③口口② |①---|
口①①口 |----|
口①①口 |②---|
口口口口 |③---|
34
口口口口 |①---|
②口口① |②---|
④口口③ |③---|
口口口口 |④---|
35
口口口口 |①---|
口口口④ |②---|
口口口③ |③---|
②口口① |④---|
36
口口口① |①---|
口口③口 |----|
口口②口 |②---|
口口口口 |③---|
37
口口①口 |①---|
口③③口 |----|
口②②口 |②---|
口口口口 |③---|
38
口①①口 |①---|
②④④② |②---|
口③③口 |③---|
口口口口 |④---|
39
口①①口 |①---|
口口口口 |----|
口②②口 |----|
口口口口 |②---|
40
口口口口 |①-②-|
③口口口 |③---|
②口口口 |----|
①口口口 |----|
41
口⑤⑤口 |①-②-|
口口口③ |③---|
口④④② |④---|
口口口① |⑤---|
42
口口口① |----|
口口口② |①---|
口口口③ |②---|
口口口口 |③---|
43
④口口③ |①---|
口②②口 |②---|
口①①口 |③---|
口口口口 |④---|
44
口口口口 |①---|
②口口① |②---|
④口口③ |③---|
口口口口 |④---|
45
口①①口 |①---|
③①①② |----|
口口口口 |②---|
口口口口 |③---|
46
口口口口 |①---|
口口口口 |②---|
②口口① |③---|
④口口③ |④---|
47
口③③口 |①---|
口②②口 |----|
口①①口 |②---|
口口口口 |③---|
48
口口口口 |①---|
②口口① |②---|
④口口③ |③---|
口口口口 |④---|
49
口口口口 |①---|
③①①② |----|
口①①口 |②---|
口口口口 |③---|
50
②②②② |①---|
口口口口 |②---|
口①①口
口口口口

口口口口
③③③③
④④④④ |③---|
口口口口 |④---|
51
口口口口 |①---|
口口口口 |----|
口口口口 |----|
①①①① |----|
52
口口口口 |①---|
口口口② |----|
口口口① |②---|
口口口口 |----|
53
口口口口 |①---|
口口②口 |----|
口口①口 |②---|
口口口口 |----|
54
口口口口 |①---|
口②口口 |----|
口①口口 |②---|
口口口口 |----|
55
口口口口 |①---|
②口口口 |----|
①口口口 |②---|
口口口口 |----|
56
口口口口 |①---|
②口口口 |----|
①口口口 |②---|
口口口口 |----|
57
口口口口 |①---|
口②口口 |----|
口①口口 |②---|
口口口口 |----|
58
⑤⑤⑤⑤ |①---|
口④③口 |②---|
口②①口 |③---|
口口口口 |④-⑤-|

不確定度: 0

最終更新:2016年07月14日 12:41