全力バタンキュー
A応P

ADVANCED

Level: 6
BPM: 155
Notes: 331

1
口口口口 |----|
口口口口 |----|
口口口口 |----|
口口口口 |----|
2
口口口口 |①---|
口口口口 |②---|
口口⑤④ |③---|
①②③口 |④-⑤-|
3
口口①口 |--①-|
口②③口 |②-③-|
口④⑤口 |④-⑤-|
口⑥⑦口 |⑥-⑦-|
4
口口⑤④ |①---|
①②③口 |②---|
口口口口 |③---|
口口口口 |④-⑤-|
5
口口口口 |----|
口口口口 |----|
①②④③ |①-②-|
口口口口 |③-④-|
6
口口⑤④ |①---|
①②③口 |②---|
口口口口 |③---|
口口口口 |④-⑤-|
7
口①口口 |--①-|
口③②口 |②-③-|
口⑤④口 |④-⑤-|
口⑦⑥口 |⑥-⑦-|
8
④⑤口口 |①---|
口③②① |②---|
口口口口 |③---|
口口口口 |④-⑤-|
9
口口口口 |----|
口口口口 |----|
口口口口 |----|
口口口口 |----|
10
口③口口 |①---|
口④口① |②---|
口⑤②口 |③-④-|
口⑥口口 |⑤-⑥-|
11
口⑥③口 |①-②-|
口口⑤② |--③-|
口④口① |--④-|
口口口口 |⑤-⑥-|
12
④口①⑤ |----|
②口口③ |①-②-|
口口口口 |③---|
口口口口 |④-⑤-|
13
口口口口 |--①-|
口②①口 |②-③-|
口口③口 |----|
口口口口 |----|
14
③口口口 |①---|
④口口① |②---|
⑤口②口 |③-④-|
⑥口口口 |⑤-⑥-|
15
口⑥③口 |①-②-|
口口⑤② |--③-|
口④口① |--④-|
口口口口 |⑤-⑥-|
16
口口口口 |----|
④口口① |①-②-|
口⑤②口 |③---|
口③口口 |④-⑤-|
17
口口口① |--①-|
口⑤④② |②-③-|
口⑦⑥③ |④-⑤-|
口口口口 |⑥-⑦-|
18
⑧口口⑥ |①-②-|
②⑦⑤① |③-④-|
④口口③ |⑤-⑥-|
口口口口 |⑦-⑧-|
19
口②②口 |①---|
⑥口口④ |②---|
⑤口①③ |③-④-|
口口口口 |⑤-⑥-|
20
口口②② |①---|
口口口口 |②---|
口①口口
口口口口

口口口口
口口口口
口⑥④口 |③-④-|
口⑤③口 |⑤-⑥-|
21
①①口口 |①---|
口口②② |②---|
③口④口 |③---|
③口④口 |--④-|
22
口口口口 |--①-|
口③②① |②-③-|
口口口口
口口口口

口⑤口⑥
口口口⑦
④口口口 |④-⑤-|
口口口口 |⑥-⑦-|
23
①口①口 |①---|
③口③口 |②---|
口②口② |③---|
口④口④ |④---|
24
②②①① |①---|
④④③③ |②---|
口口口口 |③---|
口口口口 |④---|
25
口口⑤⑤ |①---|
④口③③ |②-③-|
口②口口 |--④-|
口①①口 |⑤---|
26
口口口口 |----|
口口口口 |----|
口口口口 |----|
口口口口 |----|
27
③口口④ |①---|
口①②⑤ |②-③-|
口②①⑥ |--④-|
口口口口 |⑤-⑥-|
28
口⑤口③ |①---|
口②②④ |②---|
口①①口 |③-④-|
口口口口 |--⑤-|
29
②口①① |----|
口③口口 |①-②-|
口④口口 |--③-|
口⑤口口 |④-⑤-|
30
④口⑤③ |①---|
口口②② |②---|
口口①① |③-④-|
口口口口 |--⑤-|
31
③口口④ |--①-|
口口口⑤ |②-③-|
口①②⑥ |--④-|
口口口口 |⑤-⑥-|
32
口⑤口③ |①---|
口②②④ |②---|
口①①口 |③-④-|
口口口口 |--⑤-|
33
②口①① |----|
口③口口 |①-②-|
口④口口 |--③-|
口⑤口口 |④-⑤-|
34
口口口口 |①---|
口口②② |②---|
口口①①
口口口口

③口口③
口口口口
口④④口 |③---|
口口口口 |④---|
35
口②口口 |①---|
口①口口 |②---|
口口口④ |③---|
口口口③ |④---|
36
口口口口 |①---|
口口口① |----|
口口③口 |②---|
口口②口 |③---|
37
②口口③ |①---|
口口①口 |----|
口口口口 |②---|
口口口口 |③---|
38
口口口口 |①---|
口④④口 |②---|
口③③口 |③---|
①口口② |④---|
39
口①①口 |①---|
口口口口 |----|
口口②② |----|
口口口口 |②---|
40
口口口口 |①-②-|
口③口口 |③---|
口②口口 |----|
口①口口 |----|
41
口口口口 |①-②-|
④口③⑤ |③---|
⑥口②⑦ |④-⑤-|
口口①口 |⑥-⑦-|
42
口口口口 |----|
口口口口 |----|
口①①口 |----|
口口口口 |--①-|
43
③①①④ |--①-|
口②②⑤ |②-③-|
口口口⑥ |--④-|
口口口口 |⑤-⑥-|
44
③口口口 |①---|
④②②⑤ |②---|
口①①口 |③-④-|
口口口口 |--⑤-|
45
②口①① |----|
口③口口 |①-②-|
口④口口 |--③-|
口⑤口口 |④-⑤-|
46
③口⑤口 |①---|
④口②② |②---|
口口①① |③-④-|
口口口口 |--⑤-|
47
②口口③ |----|
口①①④ |①-②-|
口①①⑤ |--③-|
口口口口 |④-⑤-|
48
③口口口 |①---|
④②②⑤ |②---|
口①①口 |③-④-|
口口口口 |--⑤-|
49
②口①① |--①-|
口③口口 |--②-|
口④口口 |--③-|
口⑤口口 |④-⑤-|
50
②③口口 |①---|
②③口口 |②-③-|
口口①①
口口口口

口口④口
口口④口
⑥⑤⑤⑥ |④---|
口口口口 |⑤-⑥-|
51
口口口口 |----|
口口口口 |----|
口口口口 |----|
口口口口 |----|
52
口口口口 |①---|
口口口口 |②---|
口口⑤④ |③---|
①②③口 |④-⑤-|
53
口口①口 |--①-|
口②③口 |②-③-|
口④⑤口 |④-⑤-|
口⑥⑦口 |⑥-⑦-|
54
口口⑤④ |①---|
①②③口 |②---|
口口口口 |③---|
口口口口 |④-⑤-|
55
口口口口 |----|
口口口口 |----|
①②④③ |①-②-|
口口口口 |③-④-|
56
口口⑤④ |①---|
①②③口 |②---|
口口口口 |③---|
口口口口 |④-⑤-|
57
口①口口 |--①-|
口③②口 |②-③-|
口⑤④口 |④-⑤-|
口⑦⑥口 |⑥-⑦-|
58
口口⑤⑤ |①---|
口③②① |②---|
④④口口 |③---|
口口口口 |④-⑤-|

不確定度: 0

最終更新:2016年07月14日 12:41