全力バタンキュー
A応P

EXTREME

Level: 8
BPM: 155
Notes: 442

1
口口口口 |----|
口口口口 |----|
口口口口 |----|
口口口口 |----|
2
口口口口 |①---|
④口口口 |②---|
⑤口口③ |③---|
口①②口 |④-⑤-|
3
口口口④ |--①-|
口口⑤① |②-③-|
口⑥②口 |④-⑤-|
⑦③口口 |⑥-⑦-|
4
口口口口 |①---|
口口口④ |②---|
③口口⑤ |③---|
口②①口 |④-⑤-|
5
②③口口 |----|
口口口口 |----|
①④口口 |①-②-|
口口口口 |③-④-|
6
口口口口 |①---|
④口口口 |②---|
⑤口口③ |③---|
口①②口 |④-⑤-|
7
口口口④ |--①-|
口口⑤① |②-③-|
口⑥②口 |④-⑤-|
⑦③口口 |⑥-⑦-|
8
口口口口 |①---|
口口口④ |②---|
③口口⑤ |③---|
口②①口 |④-⑤-|
9
口口口口 |----|
口口口口 |----|
口口口口 |----|
口口口口 |----|
10
口口口口 |①---|
②口①口 |②---|
⑥⑤④③ |③-④-|
①口②口 |⑤-⑥-|
11
口①①口 |①-②-|
口②②⑥ |--③-|
⑤口口口 |--④-|
口③③④ |⑤-⑥-|
12
口⑤口① |----|
⑤③口口 |①-②-|
口口②口 |③---|
口口口④ |④-⑤-|
13
口口③口 |--①-|
口口口③ |②-③-|
①口口② |----|
口①②口 |----|
14
口①口② |①---|
③④⑤⑥ |②---|
口②口① |③-④-|
口口口口 |⑤-⑥-|
15
⑥③③口 |①-②-|
口口口⑤ |--③-|
④②②口 |--④-|
口①①口 |⑤-⑥-|
16
口③⑤口 |----|
③口口⑤ |①-②-|
②④④① |③---|
口②①口 |④-⑤-|
17
①⑧口② |--①-|
口③④口 |②-③-|
⑦口⑤口 |④⑤⑥-|
口口⑥口 |⑦-⑧-|
18
口口⑤① |①②③④|
⑥②⑩⑨ |⑤⑥⑦⑧|
⑪⑫⑦③ |⑨-⑩-|
⑧④口口 |⑪-⑫-|
19
②口②口 |①---|
③④口口 |②---|
口口⑥⑤ |③-④-|
口①①口 |⑤-⑥-|
20
口口②② |①---|
口口②② |②---|
口口口口
口①①口

口口口口
口口口口
口口④③ |③-④-|
⑤⑥口口 |⑤-⑥-|
21
口口口口 |①---|
口口口① |②---|
②①口口
口口②口

③③③口
口④口口
口⑤口口 |③-④-|
口口口口 |--⑤-|
22
口口⑦① |--①-|
口⑥②⑦ |②-③-|
口口⑥③ |④-⑤-|
⑤口④口 |⑥-⑦-|
23
口口口口 |①---|
口④②口 |②---|
口口口口 |③---|
③①③① |④---|
24
④④①① |①---|
④④①① |②---|
②②③③ |③---|
②②③③ |④---|
25
口④①口 |①---|
④口口① |②-③-|
②口⑥③ |--④-|
口②③⑤ |⑤-⑥-|
26
②口口③ |①-②-|
口①④口 |③-④-|
口口口口
口口口口

口口口口
口⑦口口
口⑤⑧口 |⑤-⑥-|
⑥口口口 |⑦-⑧-|
27
②④①③ |①---|
口口②① |②-③-|
①②口口 |--④-|
⑥①⑤② |⑤-⑥-|
28
⑤口口口 |①---|
①②①② |②---|
②①②① |③-④-|
口口④③ |--⑤-|
29
口口②口 |----|
口口⑤② |①-②-|
口口④口 |--③-|
①①口③ |④-⑤-|
30
②口口口 |①---|
口②口⑤ |②---|
①④③口 |③-④-|
口①口口 |--⑤-|
31
口口口③ |--①-|
口②口口 |②-③-|
口口口口
①口口口

口④口口
口口口口
口口口口 |--④-|
⑥口⑤口 |⑤-⑥-|
32
口口口口 |①---|
①②①② |②---|
②①②①
口口口口

口口口口
⑤口口口
口口口口 |③-④-|
口④口③ |--⑤-|
33
②②③口 |----|
口口①① |①-②-|
⑤④①口 |--③-|
口口①口 |④-⑤-|
34
②②口口 |①---|
口口口口 |②-③-|
口口口口
③③①①

口口口口
口口口④
口⑤口口 |④---|
口口口⑥ |⑤-⑥-|
35
口③④口 |①---|
①口口口 |②---|
口④③口 |③---|
口②②口 |④---|
36
口口口口 |①---|
①②③① |----|
口口口口 |②---|
口③②口 |③---|
37
口口口口 |①---|
口口口口 |----|
①口口①
口口口口

口口③口
②口口口
③口口口 |②---|
口口②口 |③---|
38
口①口口 |①---|
口④④② |②---|
口③③① |③---|
口②口口 |④---|
39
口①①口 |①---|
口口口口 |----|
口口口口
口口口口

口②口②
口口口口
口口口口 |----|
口口口口 |②---|
40
口口口口 |①-②-|
③③口⑥ |③---|
②②口⑤ |④-⑤-|
①①口④ |⑥---|
41
④口口④ |①-②-|
⑤③③⑤ |③---|
⑥②②⑥ |④-⑤-|
⑦①①⑦ |⑥-⑦-|
42
口⑥口口 |--①-|
⑦④⑤⑦ |②-③-|
口②③口 |④-⑤-|
口口①口 |⑥-⑦-|
43
口④口③ |--①-|
口口口口 |②-③-|
②①①② |--④-|
⑥口⑤口 |⑤-⑥-|
44
⑤口口口 |①---|
①②①② |②---|
②①②① |③-④-|
口口④③ |--⑤-|
45
口口口② |----|
③口②口 |①-②-|
口口口④ |--③-|
①①⑤口 |④-⑤-|
46
①④①③ |①---|
口①口口 |②---|
②口②⑤ |③-④-|
口②口口 |--⑤-|
47
口③口② |----|
①①口口 |①-②-|
①①口口 |--③-|
⑤口④口 |④-⑤-|
48
⑤口口口 |①---|
①②①② |②---|
②①②① |③-④-|
④口口③ |--⑤-|
49
③②②口 |--①-|
④口口口 |--②-|
⑤口①① |--③-|
口①①口 |④-⑤-|
50
口口口口 |①---|
口②③② |②-③-|
口③口③
①②③②

⑥⑥口⑤
⑥口口口
口口④口 |④---|
⑤口口口 |⑤-⑥-|
51
口口口口 |----|
口口口口 |----|
口口口口 |----|
口口口口 |----|
52
口口口口 |①---|
④口口口 |②---|
⑤口口③ |③---|
口①②口 |④-⑤-|
53
口口口④ |--①-|
口口⑤① |②-③-|
口⑥②口 |④-⑤-|
⑦③口口 |⑥-⑦-|
54
口口口口 |①---|
口口口④ |②---|
③口口⑤ |③---|
口②①口 |④-⑤-|
55
②③口口 |----|
口口口口 |----|
①④口口 |①-②-|
口口口口 |③-④-|
56
口口口口 |①---|
④口口口 |②---|
⑤口口③ |③---|
口①②口 |④-⑤-|
57
口口口④ |--①-|
口口⑤① |②-③-|
口⑥②口 |④-⑤-|
⑦③口口 |⑥-⑦-|
58
⑤口口⑤ |①---|
口④④口 |②---|
③口口口 |③---|
口②①口 |④-⑤-|

不確定度: 0

最終更新:2016年07月14日 12:41