MEGA SHAKE IT !
キュウソネコカミ

BASIC

Level: 4
BPM: 190
Notes: 280

1
口口口口 |----|
口口口口 |----|
口口口口 |----|
口口口口 |----|
2
口口口口 |----|
口口口口 |----|
口口口口 |----|
口口口口 |----|
3
口口口口 |①---|
口口②① |----|
口口口口 |②---|
口口口口 |----|
4
口口口口 |①---|
②①口口 |----|
口口口口 |②---|
口口口口 |----|
5
口口口口 |①---|
口口口口 |----|
①②口口 |②---|
口口口口 |----|
6
口口口口 |①---|
口口口口 |----|
口口①② |②---|
口口口口 |----|
7
口口口口 |①---|
口口口口 |----|
口口口口 |②---|
口口②① |----|
8
口口口口 |①---|
口口口口 |----|
口口口口 |②---|
②①口口 |----|
9
口口口口 |①---|
口口口口 |----|
①②口口 |②---|
口口口口 |----|
10
口口口口 |①---|
口口口口 |----|
口口①② |②---|
口口口口 |----|
11
口口口口 |①---|
口口口口 |----|
口口口口 |----|
口①①口 |----|
12
口口口口 |①---|
口口口口 |----|
口①①口 |----|
口口口口 |----|
13
口口口口 |①---|
口①①口 |----|
口口口口 |----|
口口口口 |----|
14
①口口① |①---|
②口口② |②---|
口口口口 |----|
口口口口 |----|
15
口口口口 |①---|
口口②口 |②---|
口③①口 |----|
口口口口 |③---|
16
②口口② |①---|
口①口口 |----|
口口口口 |②---|
口口口口 |----|
17
口口口口 |----|
口口口口 |①---|
口口口口 |----|
②口口① |--②-|
18
口口口口 |----|
口口口口 |----|
口口口口 |----|
口口口口 |----|
19
口口口口 |①---|
口口②口 |②---|
口③①口 |----|
口口口口 |③---|
20
②口口② |①---|
口①口口 |----|
口口口口 |②---|
口口口口 |----|
21
口口口口 |----|
口口口口 |①---|
口口口口 |----|
②口口① |--②-|
22
口口口口 |----|
口口口口 |----|
口口口口 |----|
口口口口 |----|
23
口①②③ |①---|
口口口④ |②---|
口口口口 |③---|
口口口口 |④---|
24
口口口口 |①---|
③②①口 |②---|
口④④口 |③---|
口口口口 |④---|
25
口口口口 |----|
口口口口 |①---|
口口口口 |----|
②口口① |--②-|
26
口口口口 |----|
口口口口 |----|
口口口口 |----|
口口口口 |----|
27
口口口口 |①---|
口口口口 |②---|
④口口口 |③---|
③②①口 |④---|
28
口口口口 |①---|
口④④口 |②---|
口①②③ |③---|
口口口口 |④---|
29
口口口口 |----|
口口口口 |①---|
口口口口 |----|
②口口① |--②-|
30
口口口口 |----|
口口口口 |----|
口口口口 |----|
口口口口 |----|
31
口①②③ |①---|
口口口④ |②---|
口口口口 |③---|
口口口口 |④---|
32
口口口口 |①---|
③②①口 |②---|
口④④口 |③---|
口口口口 |④---|
33
口口口口 |----|
口口口口 |①---|
口口口口 |----|
②口口① |--②-|
34
口口口口 |----|
口口口口 |----|
口口口口 |----|
口口口口 |----|
35
口口口口 |①---|
口口口口 |②---|
口口口④ |③---|
口①②③ |④---|
36
口口口口 |①---|
口④④口 |②---|
③②①口 |③---|
口口口口 |④---|
37
口口口口 |----|
口口口口 |①---|
口口口口 |----|
②口口① |--②-|
38
口口口口 |----|
口口口口 |----|
口口口口 |----|
口口口口 |----|
39
口口口① |①---|
口口口② |②---|
口口口③ |③---|
口口口④ |④---|
40
口口④口 |①---|
口口③口 |②---|
口口②口 |③---|
口口①口 |④---|
41
口①口口 |①---|
口②口口 |②---|
口③口口 |③---|
口④口口 |④---|
42
④口口口 |①---|
③口口口 |②---|
②口口口 |③---|
①口口口 |④---|
43
口①②③ |①---|
口口口④ |②---|
口口口口 |③---|
口口口口 |④---|
44
口口口口 |①---|
口口口口 |②---|
口口口① |③---|
口④③② |④---|
45
④口口口 |①---|
③口口口 |②---|
②口口口 |③---|
①口口口 |④---|
46
口①②口 |①---|
口③③口 |②---|
口④④口 |③---|
口口口口 |④---|
47
口口口① |①---|
口口口② |②---|
口口口③ |③---|
口口口④ |④---|
48
口③③口 |①---|
口②②口 |②---|
口①①口 |③---|
口口口口 |----|
49
①口口口 |①---|
②口口口 |②---|
③口口口 |③---|
④口口口 |④---|
50
口③③口 |①---|
口②②口 |②---|
口①①口 |③---|
口口口口 |----|
51
②口口① |①---|
④口口③ |②---|
口口口口 |③---|
口口口口 |④---|
52
口口口口 |①---|
口口口口 |②---|
②口口① |③---|
④口口③ |④---|
53
口口口口 |----|
口①①口 |①---|
口②②口 |②---|
口③③口 |③---|
54
④口口④ |①---|
③口口③ |②---|
②口口② |③---|
①口口① |④---|
55
口口①口 |①---|
口口②口 |②---|
口口③口 |③---|
口口④口 |④---|
56
③口口③ |①---|
②口口② |②---|
①口口① |③---|
口口口口 |----|
57
口①口口 |①---|
口②口口 |②---|
口③口口 |③---|
口④口口 |④---|
58
口口口口 |①---|
②口口② |②---|
①口口① |----|
口口口口 |----|
59
口②①口 |①---|
口④③口 |②---|
口口口口 |③---|
口口口口 |④---|
60
口口口口 |①---|
口口口口 |②---|
口②①口 |③---|
口④③口 |④---|
61
口口口口 |①---|
口口口口 |②---|
④口口③ |③---|
②口口① |④---|
62
④口口③ |①---|
②口口① |②---|
口口口口 |③---|
口口口口 |④---|
63
口口口口 |①---|
口①①口 |----|
口口口口 |----|
口口口口 |----|
64
口口口口 |①---|
口口口口 |----|
口①①口 |----|
口口口口 |----|
65
口口口口 |①---|
口口口口 |----|
口口口口 |----|
口①①口 |----|
66
口口口口 |①---|
口口口口 |②---|
②口口② |----|
①口口① |----|
67
口口口口 |①---|
口口②口 |②---|
口③①口 |----|
口口口口 |③---|
68
②口口② |①---|
口①口口 |----|
口口口口 |②---|
口口口口 |----|
69
口口口口 |----|
口口口口 |①---|
口口口口 |----|
②口口① |--②-|
70
口口口口 |----|
口口口口 |----|
口口口口 |----|
口口口口 |----|
71
口口口口 |①---|
口口②口 |②---|
口③①口 |----|
口口口口 |③---|
72
②口口② |①---|
口①口口 |----|
口口口口 |②---|
口口口口 |----|
73
口口口口 |----|
口口口口 |①---|
口口口口 |----|
②口口① |--②-|
74
口口口口 |----|
口口口口 |----|
口口口口 |----|
口口口口 |----|
75
口口口口 |①---|
口口②② |②---|
③③①① |----|
口口口口 |③---|
76
②②②② |①---|
①①口口 |----|
口口口口 |②---|
口口口口 |----|
77
口口口口 |----|
口口口口 |①---|
口口口口 |----|
②口口① |--②-|
78
口口口口 |----|
口口口口 |----|
口口口口 |----|
口口口口 |----|
79
口口口口 |①---|
口口②② |②---|
③③①① |----|
口口口口 |③---|
80
②②②② |①---|
①①口口 |----|
口口口口 |②---|
口口口口 |----|
81
口口口口 |----|
口口口口 |①---|
口口口口 |----|
②口口① |--②-|
82
口口口口 |----|
口口口口 |----|
口口口口 |----|
口口口口 |----|
83
口口口口 |①---|
口口口口 |----|
口口①① |----|
口口口口 |----|
84
口口口口 |①---|
①①口口 |----|
口口口口 |----|
口口口口 |----|
85
口口口口 |①---|
口口①① |----|
口口口口 |----|
口口口口 |----|
86
①①口口 |①---|
口口口口 |----|
口口口口 |----|
口口口口 |----|
87
口口①① |①---|
口口口口 |----|
口口口口 |----|
口口口口 |----|
88
口口口口 |①---|
①①口口 |----|
口口口口 |----|
口口口口 |----|
89
口口口口 |①---|
口口①① |----|
口口口口 |----|
口口口口 |----|
90
口口口口 |①---|
口口口口 |----|
①①口口 |----|
口口口口 |----|
91
口口口口 |①---|
口①①口 |----|
口口口口 |----|
口口口口 |----|
92
口口口口 |①---|
口口口口 |----|
口①①口 |----|
口口口口 |----|
93
口口口口 |①---|
口口口口 |----|
口口口口 |----|
口①①口 |----|
94
①①①① |①---|
②②②② |②---|
口口口口 |----|
口口口口 |----|

不確定度: 0

最終更新:2016年07月27日 22:24