MEGA SHAKE IT !
キュウソネコカミ

ADVANCED

Level: 7
BPM: 190
Notes: 658

1
口口口口 |----|
口口口口 |----|
口口口口 |----|
口口口口 |----|
2
口⑦⑦口 |①-②-|
⑤口口⑥ |③-④-|
③口口④ |⑤-⑥-|
①口口② |⑦---|
3
③口口③ |①---|
④口口④ |②---|
口口②口 |③---|
口①口口 |④---|
4
口①口口 |①---|
口口②口 |②---|
③口口③ |③---|
④口口④ |④---|
5
①口口口 |①---|
口口②口 |②---|
③口③口 |③---|
④口④口 |④---|
6
口①口口 |①---|
口口口② |②---|
口③口③ |③---|
口④口④ |④---|
7
①口②口 |①-②-|
口③口④ |③-④-|
⑤口⑥口 |⑤-⑥-|
口⑦口⑧ |⑦-⑧-|
8
口①口② |①-②-|
③口④口 |③-④-|
口⑤口⑥ |⑤-⑥-|
⑦口⑧口 |⑦-⑧-|
9
口口口口 |①-②-|
⑤②⑦④ |③-④-|
①⑥③⑧ |⑤-⑥-|
口口口口 |⑦-⑧-|
10
①口②口 |①-②-|
口⑤口⑥ |③-④-|
③口④口 |⑤-⑥-|
口⑦口⑧ |⑦-⑧-|
11
④口口口 |①-②-|
③⑤⑤口 |③-④-|
②口口口 |----|
①口口口 |⑤---|
12
口口口④ |①-②-|
口⑤⑤③ |③-④-|
口口口② |----|
口口口① |⑤---|
13
口③③口 |①-②-|
口口口口 |③---|
②⑥⑤④ |--④-|
口口①口 |⑤-⑥-|
14
②④③① |①-②-|
②④③① |③-④-|
口口口口 |----|
口口口口 |----|
15
②口口① |①-②-|
口⑥⑤口 |③-④-|
口口口口 |----|
④口口③ |⑤-⑥-|
16
口口口口 |①-②-|
口口口⑤ |----|
口②①④ |③-④-|
口口口③ |⑤---|
17
口口口口 |----|
②②口③ |①---|
①①口口 |②---|
口口口③ |--③-|
18
口口口口 |----|
口口③口 |①---|
口②①口 |②---|
口口③口 |③---|
19
②口口① |①-②-|
口⑥⑤口 |③-④-|
口口口口 |----|
④口口③ |⑤-⑥-|
20
口口口口 |①-②-|
口口口⑤ |----|
口②①④ |③-④-|
口口口③ |⑤---|
21
口口口口 |----|
②②口③ |①---|
①①口口 |②---|
口口口③ |--③-|
22
口口口口 |----|
口口③口 |①---|
口②①口 |②---|
口口③口 |③---|
23
④口口⑧ |①-②-|
③口口⑦ |③-④-|
②口口⑥ |⑤-⑥-|
①口口⑤ |⑦-⑧-|
24
口①②口 |①-②-|
口③④口 |③-④-|
⑤口口⑤ |⑤---|
⑥口口⑥ |⑥---|
25
①①②② |----|
①口③② |①---|
口口口口 |②---|
口③口③ |--③-|
26
口口口口 |----|
口①口口 |①---|
③②②③ |②---|
①口①口 |③---|
27
①②⑤⑥ |①-②-|
③④⑦⑧ |③-④-|
口口口口 |⑤-⑥-|
口口口口 |⑦-⑧-|
28
口口口口 |①---|
口口口口 |②---|
④②②④ |③---|
③①①③ |④---|
29
①①②② |----|
①口③② |①---|
口口口口 |②---|
口③口③ |--③-|
30
口口口口 |----|
口①口口 |①---|
②③③② |②---|
①口①口 |③---|
31
①⑥⑤④ |①-②-|
口②③口 |③-④-|
口⑥⑤④ |--⑤-|
口口口口 |--⑥-|
32
口口口口 |①-②-|
①②③④ |③-④-|
⑤口口⑥ |⑤---|
⑤口口⑥ |⑥---|
33
①①②② |----|
①口③② |①---|
口口口口 |②---|
口③口③ |--③-|
34
口口口口 |----|
口①口口 |①---|
②③③② |②---|
①口①口 |③---|
35
①口口⑦ |①-②-|
②③⑤⑧ |③-④-|
口口口口 |⑤-⑥-|
口④⑥口 |⑦-⑧-|
36
口口口口 |①-②-|
口⑤⑤口 |③-④-|
口②③口 |⑤---|
①⑥⑥④ |⑥---|
37
①①②② |----|
①口③② |①---|
口口口口 |②---|
口③口③ |--③-|
38
口口口口 |----|
口①口口 |①---|
②③③② |②---|
①口①口 |③---|
39
①①③③ |①---|
口口口口 |②---|
口口口口 |③---|
②②④④ |④---|
40
①①③③ |①---|
口口口口 |②---|
②②④④ |③---|
口口口口 |④---|
41
口口口口 |①-②-|
⑤⑥⑦⑧ |③-④-|
口口口口 |⑤-⑥-|
①②③④ |⑦-⑧-|
42
③①口② |--①-|
口口④口 |--②-|
⑤①口② |③-④-|
口口⑥口 |⑤-⑥-|
43
口口口口 |①---|
①①③③ |②---|
口口口口 |③---|
②②④④ |④---|
44
①①③③ |①---|
口口口口 |②---|
口口口口 |③---|
②②④④ |④---|
45
②①口口 |①-②-|
③口口口 |③-④-|
④口口口 |⑤-⑥-|
⑤⑥⑦⑧ |⑦-⑧-|
46
口口④③ |①-②-|
口⑥⑥② |③-④-|
口⑤⑤① |⑤---|
口口口口 |⑥---|
47
口口口口 |①-②-|
口口口口 |③-④-|
①口口④
口②③口

⑤口口口
⑥口口口
⑦口口口 |--⑤-|
口口口口 |⑥-⑦-|
48
口口①① |①---|
口口②② |②---|
口口口口
口口口口

口④④口
口口口口
口口③③ |③---|
口口口口 |--④-|
49
②口口① |--①-|
④口口③ |②-③-|
⑥口口⑤ |④-⑤-|
口口口⑦ |⑥-⑦-|
50
口口口口 |①---|
口②①口 |②---|
口③③口 |③---|
口①②口 |----|
51
④③②① |①---|
④③②① |②---|
口口口口 |③---|
口口口口 |④---|
52
口口口口 |①---|
口⑤⑤口 |②---|
①②③④ |③---|
①②③④ |④-⑤-|
53
口口④口 |----|
③口口口 |①---|
②口口口 |②---|
①口口口 |③-④-|
54
口口口口 |----|
③②口口 |①---|
口口口① |②-③-|
口口口① |----|
55
口口口口 |①---|
⑤④③② |②-③-|
⑥口口口 |④-⑤-|
⑦①①口 |⑥-⑦-|
56
口口①① |①---|
口口②② |②---|
口口口口
口口口口

口④④口
口口口口
口口③③ |③---|
口口口口 |--④-|
57
②口口① |①-②-|
④⑥⑥③ |③-④-|
口⑦⑦⑤ |⑤---|
口口口口 |⑥-⑦-|
58
⑤②①④ |--①-|
口口口口 |②---|
③⑤④③ |③---|
口①②口 |④-⑤-|
59
口②①口 |①---|
②口口① |②---|
③⑤⑤④ |③---|
口③④口 |④-⑤-|
60
②③③① |----|
口②①口 |①---|
口口口口 |②-③-|
口口口口 |----|
61
口⑤⑤口 |①---|
口口口口 |②---|
④③③④ |③---|
②①①② |④-⑤-|
62
①口口① |----|
②口口② |①---|
③口口③ |②---|
口口口口 |③---|
63
口④口口 |①-②-|
口③口口 |③-④-|
⑤②口⑤ |----|
口①口口 |⑤---|
64
口口④口 |①-②-|
⑤口③⑤ |③-④-|
口口②口 |----|
口口①口 |⑤---|
65
口③③口 |①-②-|
口口口口 |③---|
②⑥⑤④ |--④-|
口口口① |⑤-⑥-|
66
②④③① |①-②-|
②④③① |③-④-|
口口口口 |----|
口口口口 |----|
67
②口口① |①-②-|
②⑥⑤① |③-④-|
④口口③ |----|
④口口③ |⑤-⑥-|
68
口口口口 |①-②-|
口口口⑤ |----|
口②①④ |③-④-|
口口口③ |⑤---|
69
口口口口 |----|
②②口③ |①---|
①①口口 |②---|
口口口③ |--③-|
70
口口口口 |----|
口口③口 |①---|
口②①口 |②---|
口口③口 |③---|
71
②口口① |①-②-|
②⑥⑤① |③-④-|
④口口③ |----|
④口口③ |⑤-⑥-|
72
口口口口 |①-②-|
口口口⑤ |----|
口②①④ |③-④-|
口口口③ |⑤---|
73
口口口口 |----|
②②口③ |①---|
①①口口 |②---|
口口口③ |--③-|
74
口口口口 |----|
口口③口 |①---|
口②①口 |②---|
口口③口 |③---|
75
②口口① |①-②-|
②⑥⑤① |③-④-|
④口口③ |----|
④口口③ |⑤-⑥-|
76
口口口口 |①-②-|
口口口⑤ |----|
口②①④ |③-④-|
口口口③ |⑤---|
77
口口口口 |----|
②②口③ |①---|
①①口口 |②---|
口口口③ |--③-|
78
口口口口 |----|
口口③口 |①---|
口②①口 |②---|
口口③口 |③---|
79
②口口① |①-②-|
②⑥⑤① |③-④-|
④口口③ |----|
④口口③ |⑤-⑥-|
80
口口口口 |①-②-|
口口口⑤ |----|
口②①④ |③-④-|
口口口③ |⑤---|
81
口口口口 |----|
②②口③ |①---|
①①口口 |②---|
口口口③ |--③-|
82
口口口口 |----|
口口③口 |①---|
口②①口 |②---|
口口③口 |③---|
83
①④④① |①--②|
②口口② |--③-|
③口口③ |④---|
口口口口 |----|
84
①口口① |①--②|
②④④② |--③-|
③口口③ |④---|
口口口口 |----|
85
①口口① |①--②|
②口口② |--③-|
③④④③ |④---|
口口口口 |----|
86
口①①口 |①--②|
口②②口 |--③-|
④③③④ |④---|
口口口口 |----|
87
②④③① |①--②|
口口口口 |--③-|
口口口口 |④---|
①③④② |----|
88
②口口① |①--②|
④口口③ |--③-|
③口口④ |④---|
①口口② |----|
89
②④③① |①--②|
口口口口 |--③-|
口口口口 |④---|
①③④② |----|
90
②口口① |①--②|
④口口③ |--③-|
③口口④ |④---|
①口口② |----|
91
口①①口 |①---|
口口口口 |----|
口口口口 |----|
口口口口 |----|
92
口口口口 |①-②-|
口①①口 |----|
口②②口 |----|
口口口口 |----|
93
口口口口 |①-②-|
口①①口 |③---|
口②②口 |----|
口③③口 |----|
94
④口口④ |①-②-|
③口口③ |③-④-|
②口口② |----|
①口口① |----|

不確定度: 0

最終更新:2016年07月27日 22:23