MEGA SHAKE IT !
キュウソネコカミ

EXTREME

Level: 9
BPM: 190
Notes: 770

1
口口口口 |----|
口口口口 |----|
口口口口 |----|
口口口口 |----|
2
①⑤②⑥ |①②③④|
③⑦④⑧ |⑤⑥⑦⑧|
⑨口⑩口 |⑨⑩⑪⑫|
⑪口⑫⑬ |⑬---|
3
⑤⑥⑦⑧ |①-②-|
①口②口 |③-④-|
口③口④ |⑤-⑥-|
口口口口 |⑦-⑧-|
4
口口口口 |①-②-|
②口①口 |③-④-|
口④口③ |⑤-⑥-|
⑧⑦⑥⑤ |⑦-⑧-|
5
①③口口 |①-②-|
口口②④ |③-④-|
⑤⑥⑦⑧ |⑤-⑥-|
口口口口 |⑦-⑧-|
6
口口③① |①-②-|
④②口口 |③-④-|
口口口口 |⑤-⑥-|
⑧⑦⑥⑤ |⑦-⑧-|
7
⑤①口口 |①-②-|
⑥③②口 |③-④-|
⑦口④口 |⑤-⑥-|
⑧口口口 |⑦-⑧-|
8
口口①⑤ |①-②-|
口②③⑥ |③-④-|
口④口⑦ |⑤-⑥-|
口口口⑧ |⑦-⑧-|
9
①⑤口口 |①-②-|
⑥②口口 |③-④-|
③⑦口口 |⑤-⑥-|
⑧④口口 |⑦-⑧-|
10
口口⑤① |①-②-|
口口②⑥ |③-④-|
口口⑦③ |⑤-⑥-|
口口④⑧ |⑦-⑧-|
11
④口口口 |①-②-|
③⑤口口 |③-④-|
②口口口 |----|
①①口口 |⑤---|
12
口口口④ |①-②-|
口口⑤③ |③-④-|
口口口② |----|
口口①① |⑤---|
13
③口⑥③ |①-②-|
口⑤口口 |③---|
②口④② |--④-|
①①①① |⑤-⑥-|
14
⑤③口③ |①-②-|
口⑥③口 |③-④-|
口③口③ |--⑤-|
①②④口 |⑥---|
15
⑤④④口 |①-②-|
①⑤口① |③-④-|
④②②④ |----|
口③③⑥ |⑤-⑥-|
16
口口口② |①-②-|
⑥口②⑥ |--③-|
⑤口口③ |④-⑤-|
①④④口 |⑥---|
17
①③①③ |----|
口⑤⑤口 |①-②-|
口口口口 |③-④-|
④②④② |--⑤-|
18
口④⑤⑥ |--①-|
①口口① |②-③-|
口口口② |④-⑤-|
口口口③ |⑥---|
19
口口⑤⑤ |①-②-|
②④④② |③-④-|
③①①③ |----|
⑥④④口 |⑤-⑥-|
20
②②口口 |①-②-|
④⑤口⑥ |--③-|
口④⑥③ |④-⑤-|
口口口① |⑥---|
21
③①③① |----|
口口口口 |①-②-|
口⑤⑤口 |③-④-|
②④②④ |--⑤-|
22
口口口③ |--①-|
口口口② |②-③-|
①口口① |④-⑤-|
④⑤⑥口 |⑥---|
23
①⑤口口 |①-②-|
③⑦②⑥ |③-④-|
口口④⑧ |⑤-⑥-|
口口口口 |⑦-⑧-|
24
口口⑤口 |①-②-|
口口⑥口 |③-④-|
口口⑦口 |⑤-⑥-|
④③②① |⑦---|
25
①⑤⑤③ |----|
②口口④ |①-②-|
①口口③ |③-④-|
口口口口 |--⑤-|
26
口口口口 |--①-|
口③⑥口 |②-③-|
口②⑤口 |④-⑤-|
口①④口 |⑥---|
27
①口口② |①-②-|
③口口④ |③-④-|
⑤口口⑥ |⑤-⑥-|
⑦口口⑧ |⑦-⑧-|
28
①口口⑤ |①-②-|
口②⑥④ |③-④-|
口口口口 |⑤-⑥-|
口⑦③口 |⑦---|
29
①⑤⑤③ |----|
②口口④ |①-②-|
①口口③ |③-④-|
口口口口 |--⑤-|
30
口口口口 |--①-|
口③⑥口 |②-③-|
口②⑤口 |④-⑤-|
口①④口 |⑥---|
31
⑥口⑤口 |①-②-|
口口口④ |③-④-|
①口口③ |--⑤-|
口②口口 |--⑥-|
32
口⑥⑤口 |①-②-|
①口口⑤ |③-④-|
口②口口 |⑤---|
口口④③ |⑥---|
33
①⑤⑤③ |----|
②口口④ |①-②-|
①口口③ |③-④-|
口口口口 |--⑤-|
34
口口口口 |--①-|
口③⑥口 |②-③-|
口②⑤口 |④-⑤-|
口①④口 |⑥---|
35
口①口② |①-②-|
口③口⑦ |③-④-|
⑥口口④ |⑤---|
口口⑤口 |⑥-⑦-|
36
口⑤②① |①-②-|
⑤口口⑥ |③-④-|
口口口口 |⑤---|
③④口口 |⑥---|
37
①⑤⑤③ |----|
②口口④ |①-②-|
①口口③ |③-④-|
口口口口 |--⑤-|
38
口口口口 |--①-|
口③⑥口 |②-③-|
口②⑤口 |④-⑤-|
口①④口 |⑥---|
39
口①口口 |①---|
口口口② |②---|
④口口口 |③---|
口口③口 |④---|
40
①口口② |①---|
口①②口 |②---|
口④③口 |③---|
④口口③ |④---|
41
③⑤口⑦ |①-②-|
口口④⑥ |③-④-|
②⑧口② |⑤-⑥-|
口①①口 |⑦-⑧-|
42
⑤口口⑥ |--①-|
口口口④ |--②-|
③口口口 |③-④-|
①①口② |⑤-⑥-|
43
口口②口 |①---|
①口口口 |②---|
口口口③ |③---|
口④口口 |④---|
44
口①②口 |①---|
①口口② |②---|
④口口③ |③---|
口④③口 |④---|
45
①口口① |①-②-|
④②③口 |③-④-|
⑧⑤⑥口 |⑤-⑥-|
⑦口口口 |⑦-⑧-|
46
③口⑥④ |①-②-|
口⑥⑥⑥ |③-④-|
口口⑥② |⑤---|
口⑤口① |⑥---|
47
口①口口 |①-②-|
②口口口 |③-④-|
口③口④ |⑤-⑥-|
⑧⑦⑥⑤ |⑦-⑧-|
48
①口②口 |①---|
口①口② |②---|
口口口口
口口口口

口口口口
③⑥⑥口
口③口⑤ |③-④-|
口口④口 |⑤-⑥-|
49
①③②④ |--①-|
口口口口 |②-③-|
口口口⑤ |④-⑤-|
口口口⑥ |⑥---|
50
⑤口口⑤ |①---|
口②口③ |②-③-|
①口口口 |④---|
口④口口 |⑤---|
51
口①①口 |①---|
②口口② |②---|
③③口③ |③---|
④口④④ |④---|
52
口②口口 |①---|
口口②口 |②---|
口口①口
口①口口

③口口③
口口口口
口⑤⑤口 |③---|
④口口④ |④-⑤-|
53
口口口口 |----|
③口口④ |①---|
①④③② |②---|
口口口口 |③-④-|
54
①口口② |----|
口口①口 |①---|
口口口口 |②-③-|
口口口③ |----|
55
口⑦⑥⑤ |①---|
口①④口 |②-③-|
口口①③ |④-⑤-|
①口②口 |⑥-⑦-|
56
口口口口 |①---|
①口口口 |②-③-|
①③口口
口②口口

⑤口口④
口口口口
⑦口⑥⑦ |④-⑤-|
口口口口 |⑥-⑦-|
57
口口口口 |①-②-|
③⑤⑤① |③-④-|
口⑥⑦口 |⑤---|
②口口④ |⑥-⑦-|
58
④②①④ |--①-|
口口口口 |②---|
口口口口 |③---|
③口口③ |④---|
59
口口口口 |①---|
口口⑤① |②---|
③④口③ |③---|
口②②口 |④-⑤-|
60
①口②③ |----|
①口口口 |①---|
口口口口 |②-③-|
口口口口 |----|
61
口口口⑤ |①---|
口口⑤口 |②---|
口⑤②① |③---|
④③②① |④-⑤-|
62
口口口口 |----|
①口口口 |①---|
②口口口 |②---|
③口口口 |③---|
63
口口口④ |①-②-|
口口⑤③ |③-④-|
口口口② |----|
口口①① |⑤---|
64
④口口口 |①-②-|
③⑤口口 |③-④-|
②口口口 |----|
①①口口 |⑤---|
65
③口⑥③ |①-②-|
口⑤口口 |③---|
②口④② |--④-|
①①①① |⑤-⑥-|
66
⑤③口③ |①-②-|
口⑥③口 |③-④-|
口③口③ |--⑤-|
①②④口 |⑥---|
67
⑤④④口 |①-②-|
①⑤口① |③-④-|
④②②④ |----|
口③③⑥ |⑤-⑥-|
68
口口口② |①-②-|
⑥口②⑥ |--③-|
⑤口口③ |④-⑤-|
①④④口 |⑥---|
69
①③①③ |----|
口⑤⑤口 |①-②-|
口口口口 |③-④-|
④②④② |--⑤-|
70
口④⑤⑥ |--①-|
①口口① |②-③-|
口口口② |④-⑤-|
口口口③ |⑥---|
71
口口⑤⑤ |①-②-|
②④④② |③-④-|
③①①③ |----|
⑥④④口 |⑤-⑥-|
72
②②口口 |①-②-|
④⑤口⑥ |--③-|
口④⑥③ |④-⑤-|
口口口① |⑥---|
73
③①③① |----|
口口口口 |①-②-|
口⑤⑤口 |③-④-|
②④②④ |--⑤-|
74
口口口③ |--①-|
口口口② |②-③-|
①口口① |④-⑤-|
④⑤⑥口 |⑥---|
75
口口⑥⑤ |①-②-|
口③④⑥ |③-④-|
①②③口 |----|
口口口口 |⑤-⑥-|
76
②①⑥⑥ |①-②-|
口口⑥⑥ |--③-|
⑤⑤口① |④-⑤-|
③④④② |⑥---|
77
②口口④ |----|
②口口④ |①-②-|
③口口① |③-④-|
③⑤⑤① |--⑤-|
78
④口③④ |--①-|
口②⑤口 |②-③-|
口⑥①口 |④-⑤-|
口口口口 |⑥---|
79
⑤⑥口口 |①-②-|
④口口口 |③-④-|
④口口口 |----|
口③②① |⑤-⑥-|
80
口口①口 |①-②-|
口⑤⑤② |----|
口④④② |③-④-|
口③③口 |⑤---|
81
口口口口 |----|
①口口① |①---|
①②③① |②-③-|
口④⑤口 |④-⑤-|
82
口口口⑥ |--①-|
口③⑤口 |②-③-|
②④口口 |④-⑤-|
①口口① |⑥---|
83
①①口口 |①--②|
②⑧⑨口 |--③-|
③⑥⑦口 |④-⑤-|
④口⑤口 |⑥⑦⑧⑨|
84
口口①① |①--②|
口⑨⑧② |--③-|
口⑦⑥③ |④-⑤-|
口⑤口④ |⑥⑦⑧⑨|
85
①口⑨② |①--②|
③⑦口④ |--③-|
⑤口口⑧ |④-⑤-|
口口⑥口 |⑥⑦⑧⑨|
86
①口⑨② |①--②|
③⑧口④ |--③-|
⑤口⑦口 |④-⑤-|
口⑥口口 |⑥⑦⑧⑨|
87
⑤口口⑤ |①--②|
口⑥②口 |③-④-|
口③口④ |⑤---|
①口口① |⑥---|
88
④口口口 |①--②|
①口③① |③-④-|
口②⑥口 |⑤---|
⑤口口⑤ |⑥---|
89
口②口口 |①--②|
①口③① |③-④-|
④口⑥口 |⑤---|
⑤⑤⑤⑤ |⑥---|
90
①口②① |①--②|
①③口① |③-④-|
口口⑥④ |⑤---|
⑤口⑤口 |⑥---|
91
⑤⑥⑦⑧ |①-②-|
①口②口 |③-④-|
①③口④ |⑤-⑥-|
口口口口 |⑦-⑧-|
92
口口口口 |①-②-|
②①③口 |③-④-|
④②①口 |⑤-⑥-|
⑧⑦⑥⑤ |⑦-⑧-|
93
⑦③③⑧ |①-②-|
①口④② |③-④-|
⑤①②⑥ |⑤-⑥-|
口口口口 |⑦-⑧-|
94
口④④口 |①-②-|
④③③④ |③-④-|
口②②口 |----|
①口口① |----|

不確定度: 0

最終更新:2016年07月27日 22:23