Just Believe
小寺可南子

BASIC

Level: 4
BPM: 194
Notes: 278

1
口口口口 |----|
口口口口 |----|
口口口口 |----|
口口口口 |----|
2
口口口口 |----|
口口口口 |----|
口口口口 |----|
口口口口 |----|
3
口口口口 |①---|
口①①口 |----|
口口口口 |----|
口口口口 |----|
4
口口口口 |①---|
口口口口 |----|
口①①口 |----|
口口口口 |----|
5
口口口口 |①---|
口口口口 |----|
②口口② |②---|
①口口① |----|
6
②口口② |①---|
①口口① |----|
口口口口 |②---|
口口口口 |----|
7
③口口③ |①---|
口①①口 |----|
口②②口 |②---|
口口口口 |--③-|
8
口口口口 |----|
口口口口 |----|
①口口① |①---|
口口口口 |----|
9
①口口① |①---|
口口口口 |----|
口口口口 |----|
口口口口 |----|
10
口口口口 |----|
口口口口 |----|
口口口口 |----|
口口口口 |----|
11
口口口口 |①---|
口口口口 |----|
口口②口 |②---|
口口口① |----|
12
②②口口 |①---|
口①口口 |----|
口口口口 |②---|
口口口口 |----|
13
口口口① |①---|
口口②口 |----|
口口口口 |②---|
口口口口 |----|
14
口口口口 |①---|
口口口口 |----|
口①口口 |②---|
②口口口 |----|
15
口口口口 |①---|
口口口口 |----|
口口②口 |②---|
口口口① |----|
16
②②口口 |①---|
口①口口 |----|
口口口口 |②---|
口口口口 |----|
17
口口口口 |①---|
口③②① |②---|
口口口口 |③---|
口口口口 |----|
18
口口口口 |①---|
口口口口 |②---|
①②③口 |③---|
口口口口 |----|
19
口④口口 |①---|
口③口口 |②---|
口②口口 |③---|
口①口口 |④---|
20
口口口口 |①---|
口口①① |----|
口口口口 |----|
口口口口 |----|
21
口口口口 |①---|
①②③口 |②---|
口口口口 |③---|
口口口口 |----|
22
口口口口 |①---|
口口口口 |②---|
口③②① |③---|
口口口口 |----|
23
口口④口 |①---|
口口③口 |②---|
口口②口 |③---|
口口①口 |④---|
24
口口口口 |①---|
①①口口 |----|
口口口口 |----|
口口口口 |----|
25
口口口口 |①---|
④③②① |②---|
口口口口 |③---|
口口口口 |④---|
26
口口口口 |①---|
口口口口 |②---|
①②③口 |③---|
口口口口 |----|
27
口④口口 |①---|
口③口口 |②---|
口②口口 |③---|
口①口口 |④---|
28
口口口口 |①---|
口口①① |----|
口口口口 |----|
口口口口 |----|
29
口口口口 |①---|
①②③④ |②---|
口口口口 |③---|
口口口口 |④---|
30
口口口口 |①---|
口口口口 |②---|
口③②① |③---|
口口口口 |----|
31
口口④口 |①---|
口口③口 |②---|
口口②口 |③---|
口口①口 |④---|
32
口口口口 |①---|
①①口口 |----|
口口口口 |----|
口口口口 |----|
33
口口口口 |①---|
②口口① |②---|
④口口③ |③---|
口口口口 |④---|
34
②口口② |①---|
口口口口 |--②-|
口口口口 |----|
口①①口 |----|
35
口口口口 |①---|
②口口① |②---|
④口口③ |③---|
口口口口 |④---|
36
②口口② |①---|
口口口口 |--②-|
口口口口 |----|
口①①口 |----|
37
口②①口 |①---|
口④③口 |②---|
口口口口 |③---|
口口口口 |④---|
38
口口口口 |①---|
口口口口 |②---|
口②①口 |③---|
口④③口 |④---|
39
口口口口 |①---|
口口口口 |②---|
④口口③ |③---|
②口口① |④---|
40
②口口② |①---|
口①①口 |--②-|
口口口口 |----|
口口口口 |----|
41
口口口口 |①---|
②口口① |②---|
④口口③ |③---|
口口口口 |④---|
42
②口口② |①---|
口口口口 |--②-|
口口口口 |----|
口①①口 |----|
43
口口口口 |①---|
②口口① |②---|
④口口③ |③---|
口口口口 |④---|
44
②口口② |①---|
口口口口 |--②-|
口口口口 |----|
口①①口 |----|
45
口②①口 |①---|
口④③口 |②---|
口口口口 |③---|
口口口口 |④---|
46
口口口口 |①---|
口口口口 |②---|
口②①口 |③---|
口④③口 |④---|
47
③口口③ |①---|
①口口① |--②-|
口②②口 |----|
口口口口 |--③-|
48
口口口口 |----|
口口口口 |----|
口口口口 |----|
口口口口 |----|
49
口口①口 |①-②-|
口②口口 |③-④-|
口口③口 |----|
口④口口 |----|
50
①①①① |①---|
口口②口 |②---|
口口③口 |③---|
口口④口 |④---|
51
口口口口 |①---|
①口口① |----|
口口口口
口口口口

口口②②
口口③③
口口口口 |--②-|
口口口口 |--③-|
52
①①口口 |--①-|
②②口口 |--②-|
口口③③ |--③-|
口口④④ |--④-|
53
口口口口 |----|
口口口口 |----|
口口口口 |----|
口①①口 |①---|
54
口口口口 |①---|
口口口口 |②---|
④口口③ |③---|
②口口① |④---|
55
④口口③ |①---|
②口口① |②---|
口口口口 |③---|
口口口口 |④---|
56
③口口③ |①---|
口口口口 |----|
口①①口 |--②-|
口②②口 |--③-|
57
口口口口 |----|
口口口口 |----|
口口口口 |----|
口口口口 |----|
58
口①①口 |①---|
口口②口 |②---|
口口③口 |③---|
口口④口 |④---|
59
口口口口 |①---|
①口口① |----|
口口口口
口口口口

口口②②
口口③③
口口口口 |--②-|
口口口口 |--③-|
60
①①口口 |--①-|
②②口口 |--②-|
口口③③ |--③-|
口口④④ |--④-|
61
口口口口 |--①-|
口口口口 |--②-|
①①口口 |----|
②②口口 |----|
62
口口口口 |①---|
口②①口 |②---|
口④③口 |③---|
口口口口 |④---|
63
口口口口 |①---|
②口口① |②---|
④口口③ |③---|
口口口口 |④---|
64
口②②口 |①---|
口口口口 |②---|
口口口口 |----|
口①①口 |----|
65
口口口口 |----|
口口口口 |----|
口口口口 |----|
口口口口 |----|
66
口口口口 |①---|
②②①① |②---|
④④③③ |③---|
口口口口 |④---|
67
①口口① |①---|
口②②口 |----|
口③③口 |②---|
口口口口 |③---|
68
②②②② |①---|
口口口口 |②---|
口口口口 |----|
口①①口 |----|
69
口口口口 |----|
口口口口 |----|
口口口口 |----|
口口口口 |----|
70
口②①口 |①---|
口④③口 |②---|
口口口口 |③---|
口口口口 |④---|
71
口口口口 |①---|
口口口口 |②---|
口②①口 |③---|
口④③口 |④---|
72
口口口口 |①---|
口口口口 |②---|
④口口③ |③---|
②口口① |④---|
73
④口口③ |①---|
②口口① |②---|
口口口口 |③---|
口口口口 |④---|
74
口口口口 |①---|
口①①口 |----|
口①①口 |----|
口口口口 |----|
75
口口口口 |----|
口口口口 |----|
口口口口 |----|
口口口口 |----|
76
口口口口 |①---|
口口口口 |----|
口口②口 |②---|
口口口① |----|
77
②②口口 |①---|
口①口口 |----|
口口口口 |②---|
口口口口 |----|
78
口口口① |①---|
口口②口 |----|
口口口口 |②---|
口口口口 |----|
79
口口口口 |①---|
口口口口 |----|
口①口口 |②---|
②口口口 |----|
80
口口口口 |①---|
口口口口 |----|
口口②口 |②---|
口口口① |----|
81
②②口口 |①---|
口①口口 |----|
口口口口 |②---|
口口口口 |----|

不確定度: 0

最終更新:2016年07月27日 22:22